  0
SECTION
  2
HEADER
  9
$ACADVER
  1
AC1015
  9
$ACADMAINTVER
 70
     6
  9
$DWGCODEPAGE
  3
ANSI_1252
  9
$INSBASE
 10
0.0
 20
0.0
 30
0.0
  9
$EXTMIN
 10
19.49999999999996
 20
19.4999999999999
 30
0.0
  9
$EXTMAX
 10
574.5
 20
420.5
 30
0.0
  9
$LIMMIN
 10
0.0
 20
0.0
  9
$LIMMAX
 10
12.0
 20
9.0
  9
$ORTHOMODE
 70
     0
  9
$REGENMODE
 70
     1
  9
$FILLMODE
 70
     1
  9
$QTEXTMODE
 70
     0
  9
$MIRRTEXT
 70
     1
  9
$LTSCALE
 40
1.0
  9
$ATTMODE
 70
     1
  9
$TEXTSIZE
 40
0.2
  9
$TRACEWID
 40
0.05
  9
$TEXTSTYLE
  7
Standard
  9
$CLAYER
  8
0
  9
$CELTYPE
  6
ByLayer
  9
$CECOLOR
 62
   256
  9
$CELTSCALE
 40
1.0
  9
$DISPSILH
 70
     0
  9
$DIMSCALE
 40
1.0
  9
$DIMASZ
 40
0.18
  9
$DIMEXO
 40
0.0625
  9
$DIMDLI
 40
0.38
  9
$DIMRND
 40
0.0
  9
$DIMDLE
 40
0.0
  9
$DIMEXE
 40
0.18
  9
$DIMTP
 40
0.0
  9
$DIMTM
 40
0.0
  9
$DIMTXT
 40
0.18
  9
$DIMCEN
 40
0.09
  9
$DIMTSZ
 40
0.0
  9
$DIMTOL
 70
     0
  9
$DIMLIM
 70
     0
  9
$DIMTIH
 70
     1
  9
$DIMTOH
 70
     1
  9
$DIMSE1
 70
     0
  9
$DIMSE2
 70
     0
  9
$DIMTAD
 70
     0
  9
$DIMZIN
 70
     0
  9
$DIMBLK
  1

  9
$DIMASO
 70
     1
  9
$DIMSHO
 70
     1
  9
$DIMPOST
  1

  9
$DIMAPOST
  1

  9
$DIMALT
 70
     0
  9
$DIMALTD
 70
     2
  9
$DIMALTF
 40
25.4
  9
$DIMLFAC
 40
1.0
  9
$DIMTOFL
 70
     0
  9
$DIMTVP
 40
0.0
  9
$DIMTIX
 70
     0
  9
$DIMSOXD
 70
     0
  9
$DIMSAH
 70
     0
  9
$DIMBLK1
  1

  9
$DIMBLK2
  1

  9
$DIMSTYLE
  2
Standard
  9
$DIMCLRD
 70
     0
  9
$DIMCLRE
 70
     0
  9
$DIMCLRT
 70
     0
  9
$DIMTFAC
 40
1.0
  9
$DIMGAP
 40
0.09
  9
$DIMJUST
 70
     0
  9
$DIMSD1
 70
     0
  9
$DIMSD2
 70
     0
  9
$DIMTOLJ
 70
     1
  9
$DIMTZIN
 70
     0
  9
$DIMALTZ
 70
     0
  9
$DIMALTTZ
 70
     0
  9
$DIMUPT
 70
     0
  9
$DIMDEC
 70
     4
  9
$DIMTDEC
 70
     4
  9
$DIMALTU
 70
     2
  9
$DIMALTTD
 70
     2
  9
$DIMTXSTY
  7
Standard
  9
$DIMAUNIT
 70
     0
  9
$DIMADEC
 70
     0
  9
$DIMALTRND
 40
0.0
  9
$DIMAZIN
 70
     0
  9
$DIMDSEP
 70
    46
  9
$DIMATFIT
 70
     3
  9
$DIMFRAC
 70
     0
  9
$DIMLDRBLK
  1

  9
$DIMLUNIT
 70
     2
  9
$DIMLWD
 70
    -2
  9
$DIMLWE
 70
    -2
  9
$DIMTMOVE
 70
     0
  9
$LUNITS
 70
     2
  9
$LUPREC
 70
     4
  9
$SKETCHINC
 40
0.1
  9
$FILLETRAD
 40
0.5
  9
$AUNITS
 70
     0
  9
$AUPREC
 70
     0
  9
$MENU
  1
.
  9
$ELEVATION
 40
0.0
  9
$PELEVATION
 40
0.0
  9
$THICKNESS
 40
0.0
  9
$LIMCHECK
 70
     0
  9
$CHAMFERA
 40
0.5
  9
$CHAMFERB
 40
0.5
  9
$CHAMFERC
 40
1.0
  9
$CHAMFERD
 40
0.0
  9
$SKPOLY
 70
     0
  9
$TDCREATE
 40
2454986.464713981
  9
$TDUCREATE
 40
2454986.381380648
  9
$TDUPDATE
 40
2454986.464713993
  9
$TDUUPDATE
 40
2454986.38138066
  9
$TDINDWG
 40
0.0000000116
  9
$TDUSRTIMER
 40
0.0000000116
  9
$USRTIMER
 70
     1
  9
$ANGBASE
 50
0.0
  9
$ANGDIR
 70
     0
  9
$PDMODE
 70
     0
  9
$PDSIZE
 40
0.0
  9
$PLINEWID
 40
0.0
  9
$SPLFRAME
 70
     0
  9
$SPLINETYPE
 70
     6
  9
$SPLINESEGS
 70
     8
  9
$HANDSEED
  5
54C
  9
$SURFTAB1
 70
     6
  9
$SURFTAB2
 70
     6
  9
$SURFTYPE
 70
     6
  9
$SURFU
 70
     6
  9
$SURFV
 70
     6
  9
$UCSBASE
  2

  9
$UCSNAME
  2

  9
$UCSORG
 10
0.0
 20
0.0
 30
0.0
  9
$UCSXDIR
 10
1.0
 20
0.0
 30
0.0
  9
$UCSYDIR
 10
0.0
 20
1.0
 30
0.0
  9
$UCSORTHOREF
  2

  9
$UCSORTHOVIEW
 70
     0
  9
$UCSORGTOP
 10
0.0
 20
0.0
 30
0.0
  9
$UCSORGBOTTOM
 10
0.0
 20
0.0
 30
0.0
  9
$UCSORGLEFT
 10
0.0
 20
0.0
 30
0.0
  9
$UCSORGRIGHT
 10
0.0
 20
0.0
 30
0.0
  9
$UCSORGFRONT
 10
0.0
 20
0.0
 30
0.0
  9
$UCSORGBACK
 10
0.0
 20
0.0
 30
0.0
  9
$PUCSBASE
  2

  9
$PUCSNAME
  2

  9
$PUCSORG
 10
0.0
 20
0.0
 30
0.0
  9
$PUCSXDIR
 10
1.0
 20
0.0
 30
0.0
  9
$PUCSYDIR
 10
0.0
 20
1.0
 30
0.0
  9
$PUCSORTHOREF
  2

  9
$PUCSORTHOVIEW
 70
     0
  9
$PUCSORGTOP
 10
0.0
 20
0.0
 30
0.0
  9
$PUCSORGBOTTOM
 10
0.0
 20
0.0
 30
0.0
  9
$PUCSORGLEFT
 10
0.0
 20
0.0
 30
0.0
  9
$PUCSORGRIGHT
 10
0.0
 20
0.0
 30
0.0
  9
$PUCSORGFRONT
 10
0.0
 20
0.0
 30
0.0
  9
$PUCSORGBACK
 10
0.0
 20
0.0
 30
0.0
  9
$USERI1
 70
     0
  9
$USERI2
 70
     0
  9
$USERI3
 70
     0
  9
$USERI4
 70
     0
  9
$USERI5
 70
     0
  9
$USERR1
 40
16.0
  9
$USERR2
 40
0.0
  9
$USERR3
 40
0.0
  9
$USERR4
 40
0.0
  9
$USERR5
 40
0.0
  9
$WORLDVIEW
 70
     1
  9
$SHADEDGE
 70
     3
  9
$SHADEDIF
 70
    70
  9
$TILEMODE
 70
     1
  9
$MAXACTVP
 70
    64
  9
$PINSBASE
 10
0.0
 20
0.0
 30
0.0
  9
$PLIMCHECK
 70
     0
  9
$PEXTMIN
 10
1.00000000000000E+20
 20
1.00000000000000E+20
 30
1.00000000000000E+20
  9
$PEXTMAX
 10
-1.00000000000000E+20
 20
-1.00000000000000E+20
 30
-1.00000000000000E+20
  9
$PLIMMIN
 10
0.0
 20
0.0
  9
$PLIMMAX
 10
12.0
 20
9.0
  9
$UNITMODE
 70
     0
  9
$VISRETAIN
 70
     1
  9
$PLINEGEN
 70
     0
  9
$PSLTSCALE
 70
     1
  9
$TREEDEPTH
 70
  3020
  9
$CMLSTYLE
  2
Standard
  9
$CMLJUST
 70
     0
  9
$CMLSCALE
 40
1.0
  9
$PROXYGRAPHICS
 70
     1
  9
$MEASUREMENT
 70
     1
  9
$CELWEIGHT
370
    -1
  9
$ENDCAPS
280
     0
  9
$JOINSTYLE
280
     0
  9
$LWDISPLAY
290
     0
  9
$INSUNITS
 70
     1
  9
$HYPERLINKBASE
  1

  9
$STYLESHEET
  1

  9
$XEDIT
290
     1
  9
$CEPSNTYPE
380
     0
  9
$PSTYLEMODE
290
     1
  9
$FINGERPRINTGUID
  2
{F725167F-8779-437B-B8E1-FC2F9263F6D9}
  9
$VERSIONGUID
  2
{FAEB1C32-E019-11D5-929B-00C0DF256EC4}
  9
$EXTNAMES
290
     1
  9
$PSVPSCALE
 40
0.0
  9
$OLESTARTUP
290
     0
  0
ENDSEC
  0
SECTION
  2
CLASSES
  0
CLASS
  1
ACDBDICTIONARYWDFLT
  2
AcDbDictionaryWithDefault
  3
ObjectDBX Classes
 90
        0
280
     0
281
     0
  0
CLASS
  1
VISUALSTYLE
  2
AcDbVisualStyle
  3
ObjectDBX Classes
 90
     4095
280
     0
281
     0
  0
CLASS
  1

  2
exOdDbPolyline
  3

 90
        0
280
     0
281
     1
  0
CLASS
  1

  2
exOdDbSpline
  3

 90
        0
280
     0
281
     1
  0
CLASS
  1
ACDBPLACEHOLDER
  2
AcDbPlaceHolder
  3
ObjectDBX Classes
 90
        0
280
     0
281
     0
  0
CLASS
  1
LAYOUT
  2
AcDbLayout
  3
ObjectDBX Classes
 90
        0
280
     0
281
     0
  0
ENDSEC
  0
SECTION
  2
TABLES
  0
TABLE
  2
VPORT
  5
8
330
0
100
AcDbSymbolTable
 70
     1
  0
VPORT
  5
29
330
8
100
AcDbSymbolTableRecord
100
AcDbViewportTableRecord
  2
*Active
 70
     0
 10
0.0
 20
0.0
 11
1.0
 21
1.0
 12
297.0
 22
219.9999999999999
 13
0.0
 23
0.0
 14
0.5
 24
0.5
 15
0.5
 25
0.5
 16
0.0
 26
0.0
 36
1.0
 17
0.0
 27
0.0
 37
0.0
 40
441.1000000000001
 41
1.60267857142857
 42
50.0
 43
0.0
 44
0.0
 50
0.0
 51
0.0
 71
     0
 72
   100
 73
     1
 74
     3
 75
     0
 76
     0
 77
     0
 78
     0
281
     0
 65
     1
110
0.0
120
0.0
130
0.0
111
1.0
121
0.0
131
0.0
112
0.0
122
1.0
132
0.0
 79
     0
146
0.0
  0
ENDTAB
  0
TABLE
  2
LTYPE
  5
5
330
0
100
AcDbSymbolTable
 70
    10
  0
LTYPE
  5
14
330
5
100
AcDbSymbolTableRecord
100
AcDbLinetypeTableRecord
  2
ByBlock
 70
     0
  3

 72
    65
 73
     0
 40
0.0
  0
LTYPE
  5
15
330
5
100
AcDbSymbolTableRecord
100
AcDbLinetypeTableRecord
  2
ByLayer
 70
     0
  3

 72
    65
 73
     0
 40
0.0
  0
LTYPE
  5
16
330
5
100
AcDbSymbolTableRecord
100
AcDbLinetypeTableRecord
  2
Continuous
 70
     0
  3
Solid line
 72
    65
 73
     0
 40
0.0
  0
LTYPE
  5
3B
330
5
100
AcDbSymbolTableRecord
100
AcDbLinetypeTableRecord
  2
DASHED
 70
     0
  3
Dashed
 72
    65
 73
     2
 40
15.0
 49
7.0
 74
     0
 49
-8.0
 74
     0
  0
LTYPE
  5
3C
330
5
100
AcDbSymbolTableRecord
100
AcDbLinetypeTableRecord
  2
DOTTED
 70
     0
  3
Dotted
 72
    65
 73
     2
 40
1.0
 49
0.0
 74
     0
 49
-1.0
 74
     0
  0
LTYPE
  5
3D
330
5
100
AcDbSymbolTableRecord
100
AcDbLinetypeTableRecord
  2
DOT_CENTER
 70
     0
  3
Dot_Center
 72
    65
 73
     4
 40
14.0
 49
12.0
 74
     0
 49
-1.0
 74
     0
 49
0.0
 74
     0
 49
-1.0
 74
     0
  0
LTYPE
  5
3E
330
5
100
AcDbSymbolTableRecord
100
AcDbLinetypeTableRecord
  2
LONG_DASHED
 70
     0
  3
Long_Dashed
 72
    65
 73
     2
 40
15.0
 49
10.0
 74
     0
 49
-5.0
 74
     0
  0
LTYPE
  5
3F
330
5
100
AcDbSymbolTableRecord
100
AcDbLinetypeTableRecord
  2
DASH_CENTER
 70
     0
  3
Dash_Center
 72
    65
 73
     4
 40
14.0
 49
11.0
 74
     0
 49
-1.0
 74
     0
 49
1.0
 74
     0
 49
-1.0
 74
     0
  0
LTYPE
  5
40
330
5
100
AcDbSymbolTableRecord
100
AcDbLinetypeTableRecord
  2
PHANTOM
 70
     0
  3
Phantom
 72
    65
 73
     6
 40
13.0
 49
10.0
 74
     0
 49
-1.0
 74
     0
 49
0.0
 74
     0
 49
-1.0
 74
     0
 49
0.0
 74
     0
 49
-1.0
 74
     0
  0
LTYPE
  5
41
330
5
100
AcDbSymbolTableRecord
100
AcDbLinetypeTableRecord
  2
CENTER_DASH_DASH
 70
     0
  3
Center_Dash_Dash
 72
    65
 73
     6
 40
14.0
 49
9.0
 74
     0
 49
-1.0
 74
     0
 49
1.0
 74
     0
 49
-1.0
 74
     0
 49
1.0
 74
     0
 49
-1.0
 74
     0
  0
LTYPE
  5
42
330
5
100
AcDbSymbolTableRecord
100
AcDbLinetypeTableRecord
  2
CHAIN
 70
     0
  3
CHAIN
 72
    65
 73
     4
 40
4.0
 49
1.0
 74
     0
 49
-1.0
 74
     0
 49
1.0
 74
     0
 49
-1.0
 74
     0
  0
LTYPE
  5
43
330
5
100
AcDbSymbolTableRecord
100
AcDbLinetypeTableRecord
  2
DASHED_SPACE
 70
     0
  3
DASHED_SPACE
 72
    65
 73
     2
 40
2.0
 49
1.0
 74
     0
 49
-1.0
 74
     0
  0
ENDTAB
  0
TABLE
  2
LAYER
  5
2
330
0
100
AcDbSymbolTable
 70
    10
  0
LAYER
  5
10
330
2
100
AcDbSymbolTableRecord
100
AcDbLayerTableRecord
  2
0
 70
     0
 62
     7
  6
Continuous
370
    -3
390
F
  0
LAYER
  5
44
330
2
100
AcDbSymbolTableRecord
100
AcDbLayerTableRecord
  2
Bemaßungen_TC_020513_DIN_
 70
     0
 62
     7
  6
Continuous
370
    -3
390
F
  0
LAYER
  5
45
330
2
100
AcDbSymbolTableRecord
100
AcDbLayerTableRecord
  2
Mittellinie_TC_020513_DIN_
 70
     0
 62
     7
  6
Continuous
370
    -3
390
F
  0
LAYER
  5
46
330
2
100
AcDbSymbolTableRecord
100
AcDbLayerTableRecord
  2
Mittelpunktmarkierung_TC_020513_DIN_
 70
     0
 62
     7
  6
Continuous
370
    -3
390
F
  0
LAYER
  5
47
330
2
100
AcDbSymbolTableRecord
100
AcDbLayerTableRecord
  2
Schraffur
 70
     0
 62
     7
  6
Continuous
370
    -3
390
F
  0
LAYER
  5
48
330
2
100
AcDbSymbolTableRecord
100
AcDbLayerTableRecord
  2
Sichtbare_Kanten_TC_020513_DIN_
 70
     0
 62
     7
  6
Continuous
370
    -3
390
F
  0
LAYER
  5
49
330
2
100
AcDbSymbolTableRecord
100
AcDbLayerTableRecord
  2
Skizziergeometrie_ISO_
 70
     0
 62
     7
  6
Continuous
370
    -3
390
F
  0
LAYER
  5
4A
330
2
100
AcDbSymbolTableRecord
100
AcDbLayerTableRecord
  2
Stich_1-Linien_TC_020513_DIN_
 70
     0
 62
     7
  6
Continuous
370
    -3
390
F
  0
LAYER
  5
4B
330
2
100
AcDbSymbolTableRecord
100
AcDbLayerTableRecord
  2
Symbole_ISO_
 70
     0
 62
     7
  6
Continuous
370
    -3
390
F
  0
LAYER
  5
4C
330
2
100
AcDbSymbolTableRecord
100
AcDbLayerTableRecord
  2
Symbole_TC_020513_DIN_
 70
     0
 62
     7
  6
Continuous
370
    -3
390
F
  0
ENDTAB
  0
TABLE
  2
STYLE
  5
3
330
0
100
AcDbSymbolTable
 70
     6
  0
STYLE
  5
11
330
3
100
AcDbSymbolTableRecord
100
AcDbTextStyleTableRecord
  2
Standard
 70
     0
 40
0.0
 41
1.0
 50
0.0
 71
     0
 42
0.2
  3
txt
  4

  0
STYLE
  5
EB
330
3
100
AcDbSymbolTableRecord
100
AcDbTextStyleTableRecord
  2
CONVERTER_11
 70
     0
 40
0.0
 41
0.59999996423721
 50
0.0
 71
     0
 42
0.2
  3
txt.shx
  4

  0
STYLE
  5
ED
330
3
100
AcDbSymbolTableRecord
100
AcDbTextStyleTableRecord
  2
CONVERTER_12
 70
     0
 40
0.0
 41
0.67499998211861
 50
0.0
 71
     0
 42
0.2
  3
txt.shx
  4

  0
STYLE
  5
4DC
330
3
100
AcDbSymbolTableRecord
100
AcDbTextStyleTableRecord
  2
CONVERTER_13
 70
     0
 40
0.0
 41
0.74999995529652
 50
0.0
 71
     0
 42
0.2
  3
ARIAL.TTF
  4

  0
STYLE
  5
4DE
330
3
100
AcDbSymbolTableRecord
100
AcDbTextStyleTableRecord
  2
CONVERTER_14
 70
     0
 40
0.0
 41
0.56249998509884
 50
0.0
 71
     0
 42
0.2
  3
ARIAL.TTF
  4

  0
STYLE
  5
4E0
330
3
100
AcDbSymbolTableRecord
100
AcDbTextStyleTableRecord
  2
CONVERTER_15
 70
     0
 40
0.0
 41
0.625
 50
0.0
 71
     0
 42
0.2
  3
ARIAL.TTF
  4

  0
ENDTAB
  0
TABLE
  2
VIEW
  5
6
330
0
100
AcDbSymbolTable
 70
     0
  0
ENDTAB
  0
TABLE
  2
UCS
  5
7
330
0
100
AcDbSymbolTable
 70
     0
  0
ENDTAB
  0
TABLE
  2
APPID
  5
9
330
0
100
AcDbSymbolTable
 70
     1
  0
APPID
  5
12
330
9
100
AcDbSymbolTableRecord
100
AcDbRegAppTableRecord
  2
ACAD
 70
     0
  0
ENDTAB
  0
TABLE
  2
DIMSTYLE
  5
A
330
0
100
AcDbSymbolTable
 70
    11
100
AcDbDimStyleTable
  0
DIMSTYLE
105
27
330
A
100
AcDbSymbolTableRecord
100
AcDbDimStyleTableRecord
  2
Standard
 70
     0
340
11
  0
DIMSTYLE
105
4E2
330
A
100
AcDbSymbolTableRecord
100
AcDbDimStyleTableRecord
  2
ME10_DIM_10
 70
     0
140
6.99999988079071
147
1.74999997019768
178
     7
340
11
  0
DIMSTYLE
105
4ED
102
{ACAD_REACTORS
330
4EE
102
}
330
A
100
AcDbSymbolTableRecord
100
AcDbDimStyleTableRecord
  2
ME10_DIM_11
 70
     0
 41
5.0
 42
2.0
 44
4.0
 73
     0
 74
     0
 77
     1
 78
    12
140
7.0
147
0.8
172
     1
173
     1
176
     7
177
     7
178
     7
271
     2
340
4E0
  0
DIMSTYLE
105
4F8
102
{ACAD_REACTORS
330
4F9
102
}
330
A
100
AcDbSymbolTableRecord
100
AcDbDimStyleTableRecord
  2
ME10_DIM_12
 70
     0
 41
5.0
 42
2.0
 44
4.0
 73
     0
 74
     0
 77
     1
 78
    12
140
7.0
147
0.8
172
     1
173
     1
176
     7
177
     7
178
     7
271
     2
340
4E0
  0
DIMSTYLE
105
505
102
{ACAD_REACTORS
330
506
102
}
330
A
100
AcDbSymbolTableRecord
100
AcDbDimStyleTableRecord
  2
ME10_DIM_13
 70
     0
 41
5.0
 42
2.0
 44
4.0
 73
     0
 74
     0
 77
     1
 78
    12
140
7.0
147
0.8
172
     1
173
     1
176
     7
177
     7
178
     7
271
     2
340
4E0
  0
DIMSTYLE
105
510
102
{ACAD_REACTORS
330
511
102
}
330
A
100
AcDbSymbolTableRecord
100
AcDbDimStyleTableRecord
  2
ME10_DIM_14
 70
     0
 41
5.0
 42
2.0
 44
4.0
 73
     0
 74
     0
 77
     1
 78
    12
140
7.0
147
0.8
172
     1
173
     1
176
     7
177
     7
178
     7
271
     2
340
4E0
  0
DIMSTYLE
105
51B
102
{ACAD_REACTORS
330
51C
102
}
330
A
100
AcDbSymbolTableRecord
100
AcDbDimStyleTableRecord
  2
ME10_DIM_15
 70
     0
 41
5.0
 42
2.0
 44
4.0
 73
     0
 74
     0
 77
     1
 78
    12
140
7.0
147
0.8
172
     1
173
     1
176
     7
177
     7
178
     7
271
     2
340
4E0
  0
DIMSTYLE
105
526
102
{ACAD_REACTORS
330
527
102
}
330
A
100
AcDbSymbolTableRecord
100
AcDbDimStyleTableRecord
  2
ME10_DIM_16
 70
     0
 41
5.0
 42
2.0
 44
4.0
 73
     0
 74
     0
 77
     1
 78
    12
140
7.0
147
0.8
172
     1
173
     1
176
     7
177
     7
178
     7
271
     2
340
4E0
  0
DIMSTYLE
105
531
102
{ACAD_REACTORS
330
532
102
}
330
A
100
AcDbSymbolTableRecord
100
AcDbDimStyleTableRecord
  2
ME10_DIM_17
 70
     0
 41
5.0
 42
2.0
 44
4.0
 73
     0
 74
     0
 77
     1
 78
    12
140
7.0
147
0.8
172
     1
173
     1
176
     7
177
     7
178
     7
271
     2
340
4E0
  0
DIMSTYLE
105
53C
102
{ACAD_REACTORS
330
53D
102
}
330
A
100
AcDbSymbolTableRecord
100
AcDbDimStyleTableRecord
  2
ME10_DIM_18
 70
     0
 41
5.0
 42
2.0
 44
4.0
 73
     0
 74
     0
 77
     1
 78
    12
140
7.0
147
0.8
172
     1
173
     1
176
     7
177
     7
178
     7
271
     2
340
4E0
  0
DIMSTYLE
105
547
102
{ACAD_REACTORS
330
548
102
}
330
A
100
AcDbSymbolTableRecord
100
AcDbDimStyleTableRecord
  2
ME10_DIM_19
 70
     0
 41
5.0
 42
2.0
 44
4.0
 73
     0
 74
     0
 77
     1
 78
    12
140
7.0
147
0.8
172
     1
173
     1
176
     7
177
     7
178
     7
271
     2
340
4E0
  0
ENDTAB
  0
TABLE
  2
BLOCK_RECORD
  5
1
330
0
100
AcDbSymbolTable
 70
    12
  0
BLOCK_RECORD
  5
1F
330
1
100
AcDbSymbolTableRecord
100
AcDbBlockTableRecord
  2
*Model_Space
340
22
  0
BLOCK_RECORD
  5
1B
330
1
100
AcDbSymbolTableRecord
100
AcDbBlockTableRecord
  2
*Paper_Space
340
1E
  0
BLOCK_RECORD
  5
23
330
1
100
AcDbSymbolTableRecord
100
AcDbBlockTableRecord
  2
*Paper_Space0
340
26
  0
BLOCK_RECORD
  5
4D
330
1
100
AcDbSymbolTableRecord
100
AcDbBlockTableRecord
  2
Schriftfelder_Ilme
340
0
102
{BLKREFS
331
53
102
}
  0
BLOCK_RECORD
  5
50
330
1
100
AcDbSymbolTableRecord
100
AcDbBlockTableRecord
  2
Ränder_Ilme_Rahmen_A4_quer
340
0
102
{BLKREFS
331
54
102
}
  0
BLOCK_RECORD
  5
4E4
330
1
100
AcDbSymbolTableRecord
100
AcDbBlockTableRecord
  2
*D3
340
0
  0
BLOCK_RECORD
  5
4EF
330
1
100
AcDbSymbolTableRecord
100
AcDbBlockTableRecord
  2
*D4
340
0
  0
BLOCK_RECORD
  5
4FA
330
1
100
AcDbSymbolTableRecord
100
AcDbBlockTableRecord
  2
*D5
340
0
  0
BLOCK_RECORD
  5
507
330
1
100
AcDbSymbolTableRecord
100
AcDbBlockTableRecord
  2
*D6
340
0
  0
BLOCK_RECORD
  5
512
330
1
100
AcDbSymbolTableRecord
100
AcDbBlockTableRecord
  2
*D7
340
0
  0
BLOCK_RECORD
  5
51D
330
1
100
AcDbSymbolTableRecord
100
AcDbBlockTableRecord
  2
*D8
340
0
  0
BLOCK_RECORD
  5
528
330
1
100
AcDbSymbolTableRecord
100
AcDbBlockTableRecord
  2
*D9
340
0
  0
BLOCK_RECORD
  5
533
330
1
100
AcDbSymbolTableRecord
100
AcDbBlockTableRecord
  2
*D10
340
0
  0
BLOCK_RECORD
  5
53E
330
1
100
AcDbSymbolTableRecord
100
AcDbBlockTableRecord
  2
*D11
340
0
  0
ENDTAB
  0
ENDSEC
  0
SECTION
  2
BLOCKS
  0
BLOCK
  5
20
330
1F
100
AcDbEntity
  8
0
100
AcDbBlockBegin
  2
*Model_Space
 70
     0
 10
0.0
 20
0.0
 30
0.0
  3
*Model_Space
  1

  0
ENDBLK
  5
21
330
1F
100
AcDbEntity
  8
0
100
AcDbBlockEnd
  0
BLOCK
  5
1C
330
1B
100
AcDbEntity
 67
     1
  8
0
100
AcDbBlockBegin
  2
*Paper_Space
 70
     0
 10
0.0
 20
0.0
 30
0.0
  3
*Paper_Space
  1

  0
ENDBLK
  5
1D
330
1B
100
AcDbEntity
 67
     1
  8
0
100
AcDbBlockEnd
  0
BLOCK
  5
24
330
23
100
AcDbEntity
  8
0
100
AcDbBlockBegin
  2
*Paper_Space0
 70
     0
 10
0.0
 20
0.0
 30
0.0
  3
*Paper_Space0
  1

  0
ENDBLK
  5
25
330
23
100
AcDbEntity
  8
0
100
AcDbBlockEnd
  0
BLOCK
  5
4E
330
4D
100
AcDbEntity
  8
0
100
AcDbBlockBegin
  2
Schriftfelder_Ilme
 70
     0
 10
0.0
 20
0.0
 30
0.0
  3
Schriftfelder_Ilme
  1

  0
LINE
  5
55
102
{ACAD_REACTORS
330
F1
330
F1
102
}
330
4D
100
AcDbEntity
  8
0
  6
Continuous
 62
     7
100
AcDbLine
 10
192.857882489926
 20
15.5586421730067
 30
0.0
 11
191.48842975933
 21
14.7685732899702
 31
0.0
  0
LINE
  5
56
102
{ACAD_REACTORS
330
F1
330
F1
102
}
330
4D
100
AcDbEntity
  8
0
  6
Continuous
 62
     7
100
AcDbLine
 10
190.988522274833
 20
15.0573018186531
 30
0.0
 11
190.988522274833
 21
19.9439783665993
 31
0.0
  0
LINE
  5
57
102
{ACAD_REACTORS
330
F1
330
F1
102
}
330
4D
100
AcDbEntity
  8
0
  6
Continuous
 62
     7
100
AcDbLine
 10
191.48842975933
 20
20.2327068952822
 30
0.0
 11
192.857882489926
 21
19.4426380122457
 31
0.0
  0
LINE
  5
58
102
{ACAD_REACTORS
330
F1
330
F1
102
}
330
4D
100
AcDbEntity
  8
0
  6
Continuous
 62
     7
100
AcDbLine
 10
192.5247341876
 20
18.8651809548799
 30
0.0
 11
191.6551889415
 21
19.3668416737836
 31
0.0
  0
LINE
  5
59
102
{ACAD_REACTORS
330
F1
330
F1
102
}
330
4D
100
AcDbEntity
  8
0
  6
Continuous
 62
     7
100
AcDbLine
 10
191.6551889415
 20
19.3668416737836
 30
0.0
 11
191.6551889415
 21
17.8339734259596
 31
0.0
  0
LINE
  5
5A
102
{ACAD_REACTORS
330
F1
330
F1
102
}
330
4D
100
AcDbEntity
  8
0
  6
Continuous
 62
     7
100
AcDbLine
 10
191.6551889415
 20
17.8339734259596
 30
0.0
 11
192.691308338763
 21
17.8339734259596
 31
0.0
  0
LINE
  5
5B
102
{ACAD_REACTORS
330
F1
330
F1
102
}
330
4D
100
AcDbEntity
  8
0
  6
Continuous
 62
     7
100
AcDbLine
 10
192.691308338763
 20
17.1673067592928
 30
0.0
 11
191.6551889415
 21
17.1673067592928
 31
0.0
  0
LINE
  5
5C
102
{ACAD_REACTORS
330
F1
330
F1
102
}
330
4D
100
AcDbEntity
  8
0
  6
Continuous
 62
     7
100
AcDbLine
 10
191.6551889415
 20
17.1673067592928
 30
0.0
 11
191.6551889415
 21
15.6344385114688
 31
0.0
  0
LINE
  5
5D
102
{ACAD_REACTORS
330
F1
330
F1
102
}
330
4D
100
AcDbEntity
  8
0
  6
Continuous
 62
     7
100
AcDbLine
 10
191.6551889415
 20
15.6344385114688
 30
0.0
 11
192.5247341876
 21
16.1360992303725
 31
0.0
  0
LINE
  5
5E
102
{ACAD_REACTORS
330
F2
330
F2
102
}
330
4D
100
AcDbEntity
  8
0
  6
Continuous
 62
     7
100
AcDbLine
 10
186.988528696562
 20
20.7526980593071
 30
0.0
 11
186.988528696563
 21
15.8473707016896
 31
0.0
  0
LINE
  5
5F
102
{ACAD_REACTORS
330
F2
330
F2
102
}
330
4D
100
AcDbEntity
  8
0
  6
Continuous
 62
     7
100
AcDbLine
 10
187.655195363229
 20
15.8473707016896
 30
0.0
 11
187.655195363229
 21
19.2535360148728
 31
0.0
  0
LINE
  5
60
102
{ACAD_REACTORS
330
F2
330
F2
102
}
330
4D
100
AcDbEntity
  8
0
  6
Continuous
 62
     7
100
AcDbLine
 10
187.655195363229
 20
19.2535360148728
 30
0.0
 11
188.510852383006
 21
17.7714945827671
 31
0.0
  0
LINE
  5
61
102
{ACAD_REACTORS
330
F2
330
F2
102
}
330
4D
100
AcDbEntity
  8
0
  6
Continuous
 62
     7
100
AcDbLine
 10
188.7995275176
 20
17.7714945827671
 30
0.0
 11
189.655184537377
 21
19.2535360148728
 31
0.0
  0
LINE
  5
62
102
{ACAD_REACTORS
330
F2
330
F2
102
}
330
4D
100
AcDbEntity
  8
0
  6
Continuous
 62
     7
100
AcDbLine
 10
189.655184537377
 20
19.2535360148728
 30
0.0
 11
189.655184537377
 21
14.2880685085818
 31
0.0
  0
LINE
  5
63
102
{ACAD_REACTORS
330
F2
330
F2
102
}
330
4D
100
AcDbEntity
  8
0
  6
Continuous
 62
     7
100
AcDbLine
 10
190.321851204044
 20
14.2880685085818
 30
0.0
 11
190.321851204044
 21
20.752698059307
 31
0.0
  0
LINE
  5
64
102
{ACAD_REACTORS
330
F2
330
F2
102
}
330
4D
100
AcDbEntity
  8
0
  6
Continuous
 62
     7
100
AcDbLine
 10
189.82741752042
 20
20.8851811655447
 30
0.0
 11
188.655189950303
 21
18.8548234560689
 31
0.0
  0
LINE
  5
65
102
{ACAD_REACTORS
330
F2
330
F2
102
}
330
4D
100
AcDbEntity
  8
0
  6
Continuous
 62
     7
100
AcDbLine
 10
188.655189950303
 20
18.8548234560689
 30
0.0
 11
187.482962380186
 21
20.8851811655447
 31
0.0
  0
LINE
  5
66
102
{ACAD_REACTORS
330
F3
330
F3
102
}
330
4D
100
AcDbEntity
  8
0
  6
Continuous
 62
     7
100
AcDbLine
 10
186.321857625773
 20
15.270660658657
 30
0.0
 11
186.321857625773
 21
19.9439783665993
 31
0.0
  0
LINE
  5
67
102
{ACAD_REACTORS
330
F3
330
F3
102
}
330
4D
100
AcDbEntity
  8
0
  6
Continuous
 62
     7
100
AcDbLine
 10
185.655190959106
 20
19.9439783665993
 30
0.0
 11
185.655190959106
 21
15.2706619304882
 31
0.0
  0
LINE
  5
68
102
{ACAD_REACTORS
330
F3
330
F3
102
}
330
4D
100
AcDbEntity
  8
0
  6
Continuous
 62
     7
100
AcDbLine
 10
185.988710425088
 20
14.6932029657285
 30
0.0
 11
188.15634562976
 21
13.4426441938023
 31
0.0
  0
LINE
  5
69
102
{ACAD_REACTORS
330
F3
330
F3
102
}
330
4D
100
AcDbEntity
  8
0
  6
Continuous
 62
     7
100
AcDbLine
 10
188.489493932086
 20
14.0201012511681
 30
0.0
 11
186.321857625773
 21
15.270660658657
 31
0.0
  0
LINE
  5
6A
102
{ACAD_REACTORS
330
F4
330
F4
102
}
330
4D
100
AcDbEntity
  8
0
  6
Continuous
 62
     7
100
AcDbLine
 10
184.988523283636
 20
19.1539094835628
 30
0.0
 11
184.988523283636
 21
15.8473707016896
 31
0.0
  0
LINE
  5
6B
102
{ACAD_REACTORS
330
F4
330
F4
102
}
330
4D
100
AcDbEntity
  8
0
  6
Continuous
 62
     7
100
AcDbLine
 10
184.32185661697
 20
15.8473707016896
 30
0.0
 11
184.32185661697
 21
19.1539094835628
 31
0.0
  0
ARC
  5
93
102
{ACAD_REACTORS
330
F1
330
F1
102
}
330
4D
100
AcDbEntity
  8
0
  6
Continuous
 62
     7
100
AcDbCircle
 10
191.321855608167
 20
15.0573018186531
 30
0.0
 40
0.3333333333339965
100
AcDbArc
 50
180.0
 51
299.9816393688164
  0
ARC
  5
94
102
{ACAD_REACTORS
330
F1
330
F1
102
}
330
4D
100
AcDbEntity
  8
0
  6
Continuous
 62
     7
100
AcDbCircle
 10
191.321855608167
 20
19.9439783665993
 30
0.0
 40
0.3333333333332604
100
AcDbArc
 50
60.01836063118353
 51
180.0
  0
ARC
  5
95
102
{ACAD_REACTORS
330
F1
330
F1
102
}
330
4D
100
AcDbEntity
  8
0
  6
Continuous
 62
     7
100
AcDbCircle
 10
192.691308338763
 20
19.1539094835628
 30
0.0
 40
0.3333333333332746
100
AcDbArc
 50
240.0183606311793
 51
60.01835942367227
  0
ARC
  5
96
102
{ACAD_REACTORS
330
F1
330
F1
102
}
330
4D
100
AcDbEntity
  8
0
  6
Continuous
 62
     7
100
AcDbCircle
 10
192.691308338763
 20
17.5006400926262
 30
0.0
 40
0.3333333333333997
100
AcDbArc
 50
270.0
 51
90.0
  0
ARC
  5
97
102
{ACAD_REACTORS
330
F1
330
F1
102
}
330
4D
100
AcDbEntity
  8
0
  6
Continuous
 62
     7
100
AcDbCircle
 10
192.691308338763
 20
15.8473707016896
 30
0.0
 40
0.3333333333332619
100
AcDbArc
 50
299.9816393688163
 51
119.9816393688206
  0
ARC
  5
98
102
{ACAD_REACTORS
330
F2
330
F2
102
}
330
4D
100
AcDbEntity
  8
0
  6
Continuous
 62
     7
100
AcDbCircle
 10
187.253494909038
 20
20.7526980593071
 30
0.0
 40
0.2649662124751274
100
AcDbArc
 50
30.00000000000922
 51
180.0
  0
ARC
  5
99
102
{ACAD_REACTORS
330
F2
330
F2
102
}
330
4D
100
AcDbEntity
  8
0
  6
Continuous
 62
     7
100
AcDbCircle
 10
187.321862029896
 20
15.8473707016896
 30
0.0
 40
0.3333333333330017
100
AcDbArc
 50
180.0
 51
0.0
  0
ARC
  5
9A
102
{ACAD_REACTORS
330
F2
330
F2
102
}
330
4D
100
AcDbEntity
  8
0
  6
Continuous
 62
     7
100
AcDbCircle
 10
188.655189950303
 20
17.8548279161004
 30
0.0
 40
0.1666666666662864
100
AcDbArc
 50
210.0000000000623
 51
329.9999999999426
  0
ARC
  5
9B
102
{ACAD_REACTORS
330
F2
330
F2
102
}
330
4D
100
AcDbEntity
  8
0
  6
Continuous
 62
     7
100
AcDbCircle
 10
189.98851787071
 20
14.2880685085818
 30
0.0
 40
0.3333333333330017
100
AcDbArc
 50
180.0
 51
0.0
  0
ARC
  5
9C
102
{ACAD_REACTORS
330
F2
330
F2
102
}
330
4D
100
AcDbEntity
  8
0
  6
Continuous
 62
     7
100
AcDbCircle
 10
190.056884991568
 20
20.752698059307
 30
0.0
 40
0.2649662124759971
100
AcDbArc
 50
0.0
 51
149.9999999999752
  0
ARC
  5
9D
102
{ACAD_REACTORS
330
F3
330
F3
102
}
330
4D
100
AcDbEntity
  8
0
  6
Continuous
 62
     7
100
AcDbCircle
 10
185.988524292439
 20
19.9439783665993
 30
0.0
 40
0.3333333333339965
100
AcDbArc
 50
0.0
 51
180.0
  0
ARC
  5
9E
102
{ACAD_REACTORS
330
F3
330
F3
102
}
330
4D
100
AcDbEntity
  8
0
  6
Continuous
 62
     7
100
AcDbCircle
 10
186.321859827834
 20
15.2706619304882
 30
0.0
 40
0.66666886872801
100
AcDbArc
 50
180.0
 51
240.0183606311481
  0
ARC
  5
9F
102
{ACAD_REACTORS
330
F3
330
F3
102
}
330
4D
100
AcDbEntity
  8
0
  6
Continuous
 62
     7
100
AcDbCircle
 10
188.322919780923
 20
13.7313727224852
 30
0.0
 40
0.3333333333332604
100
AcDbArc
 50
240.0183606311836
 51
60.01836063118368
  0
ARC
  5
A0
102
{ACAD_REACTORS
330
F4
330
F4
102
}
330
4D
100
AcDbEntity
  8
0
  6
Continuous
 62
     7
100
AcDbCircle
 10
184.655189950303
 20
15.8473707016896
 30
0.0
 40
0.3333333333330017
100
AcDbArc
 50
180.0
 51
0.0
  0
ARC
  5
A1
102
{ACAD_REACTORS
330
F4
330
F4
102
}
330
4D
100
AcDbEntity
  8
0
  6
Continuous
 62
     7
100
AcDbCircle
 10
184.655189950303
 20
19.1539094835628
 30
0.0
 40
0.3333333333330017
100
AcDbArc
 50
0.0
 51
180.0
  0
LWPOLYLINE
  5
B3
330
4D
100
AcDbEntity
  8
Skizziergeometrie_ISO_
  6
Continuous
 62
     7
100
AcDbPolyline
 90
        2
 70
     0
 43
0.5
 10
19.980189950303
 20
45.0006400926262
 10
19.980189950303
 20
10.0006400926262
  0
LWPOLYLINE
  5
B4
330
4D
100
AcDbEntity
  8
Skizziergeometrie_ISO_
  6
Continuous
 62
     7
100
AcDbPolyline
 90
        2
 70
     0
 43
0.5
 10
189.655184537377
 20
14.2880685085818
 10
189.655184537377
 20
19.2535360148728
  0
LWPOLYLINE
  5
B5
330
4D
100
AcDbEntity
  8
Skizziergeometrie_ISO_
  6
Continuous
 62
     7
100
AcDbPolyline
 90
        2
 70
     0
 43
0.5
 10
189.655184537377
 20
19.2535360148728
 10
188.7995275176
 20
17.7714945827671
  0
LWPOLYLINE
  5
B6
330
4D
100
AcDbEntity
  8
Skizziergeometrie_ISO_
  6
Continuous
 62
     7
100
AcDbPolyline
 90
        2
 70
     0
 43
0.5
 10
188.510852383006
 20
17.7714945827671
 10
187.655195363229
 20
19.2535360148728
  0
LWPOLYLINE
  5
B7
330
4D
100
AcDbEntity
  8
Skizziergeometrie_ISO_
  6
Continuous
 62
     7
100
AcDbPolyline
 90
        2
 70
     0
 43
0.5
 10
187.655195363229
 20
19.2535360148728
 10
187.655195363229
 20
15.8473707016896
  0
LWPOLYLINE
  5
B8
330
4D
100
AcDbEntity
  8
Skizziergeometrie_ISO_
  6
Continuous
 62
     7
100
AcDbPolyline
 90
        2
 70
     0
 43
0.5
 10
180.238754675162
 20
17.6450043569675
 10
188.655189950303
 20
22.500640092627
  0
LWPOLYLINE
  5
B9
330
4D
100
AcDbEntity
  8
Skizziergeometrie_ISO_
  6
Continuous
 62
     7
100
AcDbPolyline
 90
        2
 70
     0
 43
0.5
 10
188.655189950303
 20
22.500640092627
 10
197.071625225444
 20
17.6450043569675
  0
LWPOLYLINE
  5
BA
330
4D
100
AcDbEntity
  8
Skizziergeometrie_ISO_
  6
Continuous
 62
     7
100
AcDbPolyline
 90
        2
 70
     0
 43
0.5
 10
197.071625225444
 20
17.3562758282849
 10
188.655189950303
 20
12.5006400926254
  0
LWPOLYLINE
  5
BB
330
4D
100
AcDbEntity
  8
Skizziergeometrie_ISO_
  6
Continuous
 62
     7
100
AcDbPolyline
 90
        2
 70
     0
 43
0.5
 10
188.655189950303
 20
12.5006400926254
 10
180.238754675162
 20
17.3562758282849
  0
LWPOLYLINE
  5
BC
330
4D
100
AcDbEntity
  8
Skizziergeometrie_ISO_
  6
Continuous
 62
     7
100
AcDbPolyline
 90
        2
 70
     0
 43
0.5
 10
186.988528696563
 20
15.8473707016896
 10
186.988528696562
 20
20.7526980593071
  0
LWPOLYLINE
  5
BD
330
4D
100
AcDbEntity
  8
Skizziergeometrie_ISO_
  6
Continuous
 62
     7
100
AcDbPolyline
 90
        2
 70
     0
 43
0.5
 10
187.482962380186
 20
20.8851811655447
 10
188.655189950303
 20
18.8548234560689
  0
LWPOLYLINE
  5
BE
330
4D
100
AcDbEntity
  8
Skizziergeometrie_ISO_
  6
Continuous
 62
     7
100
AcDbPolyline
 90
        2
 70
     0
 43
0.5
 10
190.321851204044
 20
14.2880685085818
 10
190.321851204044
 20
20.752698059307
  0
LWPOLYLINE
  5
BF
330
4D
100
AcDbEntity
  8
Skizziergeometrie_ISO_
  6
Continuous
 62
     7
100
AcDbPolyline
 90
        2
 70
     0
 43
0.5
 10
189.82741752042
 20
20.8851811655447
 10
188.655189950303
 20
18.8548234560689
  0
LWPOLYLINE
  5
C0
330
4D
100
AcDbEntity
  8
Skizziergeometrie_ISO_
  6
Continuous
 62
     7
100
AcDbPolyline
 90
        2
 70
     0
 43
0.5
 10
185.655190959106
 20
15.2706619304882
 10
185.655190959106
 20
19.9439783665993
  0
LWPOLYLINE
  5
C1
330
4D
100
AcDbEntity
  8
Skizziergeometrie_ISO_
  6
Continuous
 62
     7
100
AcDbPolyline
 90
        2
 70
     0
 43
0.5
 10
186.321857625773
 20
19.9439783665993
 10
186.321857625773
 20
15.270660658657
  0
LWPOLYLINE
  5
C2
330
4D
100
AcDbEntity
  8
Skizziergeometrie_ISO_
  6
Continuous
 62
     7
100
AcDbPolyline
 90
        2
 70
     0
 43
0.5
 10
186.321857625773
 20
15.270660658657
 10
188.489493932086
 20
14.0201012511681
  0
LWPOLYLINE
  5
C3
330
4D
100
AcDbEntity
  8
Skizziergeometrie_ISO_
  6
Continuous
 62
     7
100
AcDbPolyline
 90
        2
 70
     0
 43
0.5
 10
188.15634562976
 20
13.4426441938023
 10
185.988710425088
 20
14.6932029657285
  0
LWPOLYLINE
  5
C4
330
4D
100
AcDbEntity
  8
Skizziergeometrie_ISO_
  6
Continuous
 62
     7
100
AcDbPolyline
 90
        2
 70
     0
 43
0.5
 10
184.988523283636
 20
19.1539094835628
 10
184.988523283636
 20
15.8473707016896
  0
LWPOLYLINE
  5
C5
330
4D
100
AcDbEntity
  8
Skizziergeometrie_ISO_
  6
Continuous
 62
     7
100
AcDbPolyline
 90
        2
 70
     0
 43
0.5
 10
184.32185661697
 20
15.8473707016896
 10
184.32185661697
 20
19.1539094835628
  0
LWPOLYLINE
  5
C6
330
4D
100
AcDbEntity
  8
Skizziergeometrie_ISO_
  6
Continuous
 62
     7
100
AcDbPolyline
 90
        2
 70
     0
 43
0.5
 10
191.48842975933
 20
20.2327068952822
 10
192.857882489926
 20
19.4426380122457
  0
LWPOLYLINE
  5
C7
330
4D
100
AcDbEntity
  8
Skizziergeometrie_ISO_
  6
Continuous
 62
     7
100
AcDbPolyline
 90
        2
 70
     0
 43
0.5
 10
192.5247341876
 20
18.8651809548799
 10
191.6551889415
 20
19.3668416737836
  0
LWPOLYLINE
  5
C8
330
4D
100
AcDbEntity
  8
Skizziergeometrie_ISO_
  6
Continuous
 62
     7
100
AcDbPolyline
 90
        2
 70
     0
 43
0.5
 10
191.6551889415
 20
19.3668416737836
 10
191.6551889415
 20
17.8339734259596
  0
LWPOLYLINE
  5
C9
330
4D
100
AcDbEntity
  8
Skizziergeometrie_ISO_
  6
Continuous
 62
     7
100
AcDbPolyline
 90
        2
 70
     0
 43
0.5
 10
191.6551889415
 20
17.8339734259596
 10
192.691308338763
 20
17.8339734259596
  0
LWPOLYLINE
  5
CA
330
4D
100
AcDbEntity
  8
Skizziergeometrie_ISO_
  6
Continuous
 62
     7
100
AcDbPolyline
 90
        2
 70
     0
 43
0.5
 10
192.691308338763
 20
17.1673067592928
 10
191.6551889415
 20
17.1673067592928
  0
LWPOLYLINE
  5
CB
330
4D
100
AcDbEntity
  8
Skizziergeometrie_ISO_
  6
Continuous
 62
     7
100
AcDbPolyline
 90
        2
 70
     0
 43
0.5
 10
191.6551889415
 20
17.1673067592928
 10
191.6551889415
 20
15.6344385114688
  0
LWPOLYLINE
  5
CC
330
4D
100
AcDbEntity
  8
Skizziergeometrie_ISO_
  6
Continuous
 62
     7
100
AcDbPolyline
 90
        2
 70
     0
 43
0.5
 10
191.6551889415
 20
15.6344385114688
 10
192.5247341876
 20
16.1360992303725
  0
LWPOLYLINE
  5
CD
330
4D
100
AcDbEntity
  8
Skizziergeometrie_ISO_
  6
Continuous
 62
     7
100
AcDbPolyline
 90
        2
 70
     0
 43
0.5
 10
192.857882489926
 20
15.5586421730067
 10
191.48842975933
 20
14.7685732899702
  0
LWPOLYLINE
  5
CE
330
4D
100
AcDbEntity
  8
Skizziergeometrie_ISO_
  6
Continuous
 62
     7
100
AcDbPolyline
 90
        2
 70
     0
 43
0.5
 10
190.988522274833
 20
15.0573018186531
 10
190.988522274833
 20
19.9439783665993
  0
LWPOLYLINE
  5
CF
330
4D
100
AcDbEntity
  8
Skizziergeometrie_ISO_
  6
Continuous
 62
     7
100
AcDbPolyline
 90
        2
 70
     0
 43
0.5
 10
177.330189950303
 20
25.0006400926262
 10
177.330189950303
 20
10.0006400926262
  0
LWPOLYLINE
  5
D0
330
4D
100
AcDbEntity
  8
Skizziergeometrie_ISO_
  6
Continuous
 62
     7
100
AcDbPolyline
 90
        2
 70
     0
 43
0.5
 10
159.980189950303
 20
25.0006400926262
 10
159.980189950303
 20
10.0006400926262
  0
LWPOLYLINE
  5
D1
330
4D
100
AcDbEntity
  8
Skizziergeometrie_ISO_
  6
Continuous
 62
     7
100
AcDbPolyline
 90
        2
 70
     0
 43
0.5
 10
49.9801899503031
 20
10.0006400926262
 10
49.9801899503031
 20
25.0006400926262
  0
LWPOLYLINE
  5
D2
330
4D
100
AcDbEntity
  8
Skizziergeometrie_ISO_
  6
Continuous
 62
     7
100
AcDbPolyline
 90
        2
 70
     0
 43
0.5
 10
44.980189950303
 20
45.0006400926262
 10
44.980189950303
 20
25.0006400926262
  0
LWPOLYLINE
  5
D3
330
4D
100
AcDbEntity
  8
Skizziergeometrie_ISO_
  6
Continuous
 62
     7
100
AcDbPolyline
 90
        2
 70
     0
 43
0.5
 10
26.980189950303
 20
45.0006400926262
 10
26.980189950303
 20
25.0006400926262
  0
LWPOLYLINE
  5
D4
330
4D
100
AcDbEntity
  8
Skizziergeometrie_ISO_
  6
Continuous
 62
     7
100
AcDbPolyline
 90
        2
 70
     0
 43
0.5
 10
19.980189950303
 20
17.5006400926262
 10
49.9801899503031
 20
17.5006400926262
  0
LWPOLYLINE
  5
D5
330
4D
100
AcDbEntity
  8
Skizziergeometrie_ISO_
  6
Continuous
 62
     7
100
AcDbPolyline
 90
        2
 70
     0
 43
0.5
 10
19.980189950303
 20
25.0006400926262
 10
199.980189950303
 20
25.0006400926262
  0
LWPOLYLINE
  5
D6
330
4D
100
AcDbEntity
  8
Skizziergeometrie_ISO_
  6
Continuous
 62
     7
100
AcDbPolyline
 90
        2
 70
     0
 43
0.5
 10
19.980189950303
 20
30.0006400926262
 10
199.980189950303
 20
30.0006400926262
  0
LWPOLYLINE
  5
D7
330
4D
100
AcDbEntity
  8
Skizziergeometrie_ISO_
  6
Continuous
 62
     7
100
AcDbPolyline
 90
        2
 70
     0
 43
0.5
 10
19.980189950303
 20
35.0006400926262
 10
199.980189950303
 20
35.0006400926262
  0
LWPOLYLINE
  5
D8
330
4D
100
AcDbEntity
  8
Skizziergeometrie_ISO_
  6
Continuous
 62
     7
100
AcDbPolyline
 90
        2
 70
     0
 43
0.5
 10
19.980189950303
 20
40.0006400926262
 10
199.980189950303
 20
40.0006400926262
  0
LWPOLYLINE
  5
D9
330
4D
100
AcDbEntity
  8
Skizziergeometrie_ISO_
  6
Continuous
 62
     7
100
AcDbPolyline
 90
        2
 70
     0
 43
0.5
 10
19.980189950303
 20
45.0006400926262
 10
199.980189950303
 20
45.0006400926262
  0
LWPOLYLINE
  5
DA
330
4D
100
AcDbEntity
  8
Skizziergeometrie_ISO_
  6
Continuous
 62
     7
100
AcDbPolyline
 90
        2
 70
     0
 43
0.5
 10
188.510852383006
 20
17.77149458276709
 42
0.57735026918893
 10
188.7995275176
 20
17.77149458276711
  0
LWPOLYLINE
  5
DB
330
4D
100
AcDbEntity
  8
Skizziergeometrie_ISO_
  6
Continuous
 62
     7
100
AcDbPolyline
 90
        2
 70
     0
 43
0.5
 10
185.655190959106
 20
15.2706619304882
 42
0.26803505952205
 10
185.988710425088
 20
14.6932029657285
  0
LWPOLYLINE
  5
DC
330
4D
100
AcDbEntity
  8
Skizziergeometrie_ISO_
  6
Continuous
 62
     7
100
AcDbPolyline
 90
        2
 70
     0
 43
0.5
 10
180.238754675162
 20
17.6450043569675
 42
0.57756392459859
 10
180.238754675162
 20
17.3562758282849
  0
LWPOLYLINE
  5
DD
330
4D
100
AcDbEntity
  8
Skizziergeometrie_ISO_
  6
Continuous
 62
     7
100
AcDbPolyline
 90
        2
 70
     0
 43
0.5
 10
197.071625225444
 20
17.3562758282849
 42
0.57756392459859
 10
197.071625225444
 20
17.6450043569675
  0
LWPOLYLINE
  5
DE
330
4D
100
AcDbEntity
  8
Skizziergeometrie_ISO_
  6
Continuous
 62
     7
100
AcDbPolyline
 90
        2
 70
     0
 43
0.5
 10
191.48842975933
 20
20.2327068952822
 42
0.57724345630757
 10
190.988522274833
 20
19.9439783665993
  0
LWPOLYLINE
  5
DF
330
4D
100
AcDbEntity
  8
Skizziergeometrie_ISO_
  6
Continuous
 62
     7
100
AcDbPolyline
 90
        2
 70
     0
 43
0.5
 10
190.988522274833
 20
15.0573018186531
 42
0.57724345630757
 10
191.48842975933
 20
14.7685732899702
  0
LWPOLYLINE
  5
E0
330
4D
100
AcDbEntity
  8
Skizziergeometrie_ISO_
  6
Continuous
 62
     7
100
AcDbPolyline
 90
        2
 70
     0
 43
0.5
 10
187.482962380186
 20
20.8851811655447
 42
0.76732698797888
 10
186.988528696562
 20
20.7526980593071
  0
LWPOLYLINE
  5
E1
330
4D
100
AcDbEntity
  8
Skizziergeometrie_ISO_
  6
Continuous
 62
     7
100
AcDbPolyline
 90
        2
 70
     0
 43
0.5
 10
186.988528696563
 20
15.8473707016896
 42
1.0
 10
187.655195363229
 20
15.8473707016896
  0
LWPOLYLINE
  5
E2
330
4D
100
AcDbEntity
  8
Skizziergeometrie_ISO_
  6
Continuous
 62
     7
100
AcDbPolyline
 90
        2
 70
     0
 43
0.5
 10
189.655184537377
 20
14.2880685085818
 42
1.0
 10
190.321851204044
 20
14.2880685085818
  0
LWPOLYLINE
  5
E3
330
4D
100
AcDbEntity
  8
Skizziergeometrie_ISO_
  6
Continuous
 62
     7
100
AcDbPolyline
 90
        2
 70
     0
 43
0.5
 10
190.321851204044
 20
20.752698059307
 42
0.76732698797879
 10
189.82741752042
 20
20.8851811655447
  0
LWPOLYLINE
  5
E4
330
4D
100
AcDbEntity
  8
Skizziergeometrie_ISO_
  6
Continuous
 62
     7
100
AcDbPolyline
 90
        2
 70
     0
 43
0.5
 10
186.321857625773
 20
19.9439783665993
 42
1.0
 10
185.655190959106
 20
19.9439783665993
  0
LWPOLYLINE
  5
E5
330
4D
100
AcDbEntity
  8
Skizziergeometrie_ISO_
  6
Continuous
 62
     7
100
AcDbPolyline
 90
        2
 70
     0
 43
0.5
 10
188.15634562976
 20
13.4426441938023
 42
1.0
 10
188.489493932086
 20
14.0201012511681
  0
LWPOLYLINE
  5
E6
330
4D
100
AcDbEntity
  8
Skizziergeometrie_ISO_
  6
Continuous
 62
     7
100
AcDbPolyline
 90
        2
 70
     0
 43
0.5
 10
184.988523283636
 20
19.1539094835628
 42
1.0
 10
184.32185661697
 20
19.1539094835628
  0
LWPOLYLINE
  5
E7
330
4D
100
AcDbEntity
  8
Skizziergeometrie_ISO_
  6
Continuous
 62
     7
100
AcDbPolyline
 90
        2
 70
     0
 43
0.5
 10
184.32185661697
 20
15.8473707016896
 42
1.0
 10
184.988523283636
 20
15.8473707016896
  0
LWPOLYLINE
  5
E8
330
4D
100
AcDbEntity
  8
Skizziergeometrie_ISO_
  6
Continuous
 62
     7
100
AcDbPolyline
 90
        2
 70
     0
 43
0.5
 10
192.5247341876
 20
18.8651809548799
 42
1.00000000000005
 10
192.857882489926
 20
19.4426380122457
  0
LWPOLYLINE
  5
E9
330
4D
100
AcDbEntity
  8
Skizziergeometrie_ISO_
  6
Continuous
 62
     7
100
AcDbPolyline
 90
        2
 70
     0
 43
0.5
 10
192.691308338763
 20
17.1673067592928
 42
1.0
 10
192.691308338763
 20
17.8339734259596
  0
LWPOLYLINE
  5
EA
330
4D
100
AcDbEntity
  8
Skizziergeometrie_ISO_
  6
Continuous
 62
     7
100
AcDbPolyline
 90
        2
 70
     0
 43
0.5
 10
192.857882489926
 20
15.5586421730067
 42
1.00000000000005
 10
192.5247341876
 20
16.1360992303725
  0
MTEXT
  5
EC
330
4D
100
AcDbEntity
  8
Symbole_ISO_
 62
     7
100
AcDbMText
 10
39.980189950303
 20
21.2506400926262
 30
0.0
 40
3.49999994039535
 41
0.0
 71
     5
 72
     1
  1
04.01.2007
  7
CONVERTER_11
 73
     1
 44
1.0
  0
MTEXT
  5
EE
330
4D
100
AcDbEntity
  8
Symbole_ISO_
 62
     7
100
AcDbMText
 10
168.655189950303
 20
22.5006400926262
 30
0.0
 40
2.5
 41
0.0
 71
     5
 72
     1
  1
Scale
  7
CONVERTER_12
 73
     1
 44
1.0
  0
MTEXT
  5
EF
330
4D
100
AcDbEntity
  8
Symbole_ISO_
 62
     7
100
AcDbMText
 10
20.980189950303
 20
13.7506400926262
 30
0.0
 40
2.5
 41
0.0
 71
     4
 72
     1
  1
Sign.
  7
CONVERTER_12
 73
     1
 44
1.0
  0
MTEXT
  5
F0
330
4D
100
AcDbEntity
  8
Symbole_ISO_
 62
     7
100
AcDbMText
 10
20.980189950303
 20
21.2506400926262
 30
0.0
 40
2.5
 41
0.0
 71
     4
 72
     1
  1
Date
  7
CONVERTER_12
 73
     1
 44
1.0
  0
HATCH
  5
F1
330
4D
100
AcDbEntity
  8
Schraffur
  6
Continuous
 62
     7
100
AcDbHatch
 10
0.0
 20
0.0
 30
0.0
210
0.0
220
0.0
230
1.0
  2
SOLID
 70
     1
 71
     1
 91
        1
 92
        1
 93
       14
 72
     2
 10
192.691308338763
 20
19.1539094835628
 40
0.3333333333332746
 50
299.9816405763278
 51
479.9816393688208
 73
     0
 72
     1
 10
192.5247341876
 20
18.8651809548799
 11
191.6551889415
 21
19.3668416737836
 72
     1
 10
191.6551889415
 20
19.3668416737836
 11
191.6551889415
 21
17.8339734259596
 72
     1
 10
191.6551889415
 20
17.8339734259596
 11
192.691308338763
 21
17.8339734259596
 72
     2
 10
192.691308338763
 20
17.5006400926262
 40
0.3333333333333997
 50
270.0
 51
450.0
 73
     0
 72
     1
 10
192.691308338763
 20
17.1673067592928
 11
191.6551889415
 21
17.1673067592928
 72
     1
 10
191.6551889415
 20
17.1673067592928
 11
191.6551889415
 21
15.6344385114688
 72
     1
 10
191.6551889415
 20
15.6344385114688
 11
192.5247341876
 21
16.1360992303725
 72
     2
 10
192.691308338763
 20
15.8473707016896
 40
0.3333333333332619
 50
240.0183606311795
 51
420.0183606311837
 73
     0
 72
     1
 10
192.857882489926
 20
15.5586421730067
 11
191.48842975933
 21
14.7685732899702
 72
     2
 10
191.321855608167
 20
15.0573018186531
 40
0.3333333333339965
 50
60.01836063118353
 51
180.0
 73
     0
 72
     1
 10
190.988522274833
 20
15.0573018186531
 11
190.988522274833
 21
19.9439783665993
 72
     2
 10
191.321855608167
 20
19.9439783665993
 40
0.3333333333332604
 50
180.0
 51
299.9816393688164
 73
     0
 72
     1
 10
191.48842975933
 20
20.2327068952822
 11
192.857882489926
 21
19.4426380122457
 97
       14
330
55
330
93
330
56
330
94
330
57
330
95
330
58
330
59
330
5A
330
96
330
5B
330
5C
330
5D
330
97
 75
     0
 76
     1
 98
        1
 10
0.0
 20
0.0
  0
HATCH
  5
F2
330
4D
100
AcDbEntity
  8
Schraffur
  6
Continuous
 62
     7
100
AcDbHatch
 10
0.0
 20
0.0
 30
0.0
210
0.0
220
0.0
230
1.0
  2
SOLID
 70
     1
 71
     1
 91
        1
 92
        1
 93
       13
 72
     2
 10
187.253494909038
 20
20.7526980593071
 40
0.2649662124751274
 50
30.00000000000922
 51
180.0
 73
     1
 72
     1
 10
186.988528696562
 20
20.7526980593071
 11
186.988528696563
 21
15.8473707016896
 72
     2
 10
187.321862029896
 20
15.8473707016896
 40
0.3333333333330017
 50
180.0
 51
360.0
 73
     1
 72
     1
 10
187.655195363229
 20
15.8473707016896
 11
187.655195363229
 21
19.2535360148728
 72
     1
 10
187.655195363229
 20
19.2535360148728
 11
188.510852383006
 21
17.7714945827671
 72
     2
 10
188.655189950303
 20
17.8548279161004
 40
0.1666666666662864
 50
210.0000000000623
 51
329.9999999999426
 73
     1
 72
     1
 10
188.7995275176
 20
17.7714945827671
 11
189.655184537377
 21
19.2535360148728
 72
     1
 10
189.655184537377
 20
19.2535360148728
 11
189.655184537377
 21
14.2880685085818
 72
     2
 10
189.98851787071
 20
14.2880685085818
 40
0.3333333333330017
 50
180.0
 51
360.0
 73
     1
 72
     1
 10
190.321851204044
 20
14.2880685085818
 11
190.321851204044
 21
20.752698059307
 72
     2
 10
190.056884991568
 20
20.752698059307
 40
0.2649662124759971
 50
0.0
 51
149.9999999999752
 73
     1
 72
     1
 10
189.82741752042
 20
20.8851811655447
 11
188.655189950303
 21
18.8548234560689
 72
     1
 10
188.655189950303
 20
18.8548234560689
 11
187.482962380186
 21
20.8851811655447
 97
       13
330
64
330
9C
330
63
330
9B
330
62
330
61
330
9A
330
60
330
5F
330
99
330
5E
330
98
330
65
 75
     0
 76
     1
 98
        1
 10
0.0
 20
0.0
  0
HATCH
  5
F3
330
4D
100
AcDbEntity
  8
Schraffur
  6
Continuous
 62
     7
100
AcDbHatch
 10
0.0
 20
0.0
 30
0.0
210
0.0
220
0.0
230
1.0
  2
SOLID
 70
     1
 71
     1
 91
        1
 92
        1
 93
        7
 72
     1
 10
186.321857625773
 20
15.270660658657
 11
186.321857625773
 21
19.9439783665993
 72
     2
 10
185.988524292439
 20
19.9439783665993
 40
0.3333333333339965
 50
0.0
 51
180.0
 73
     1
 72
     1
 10
185.655190959106
 20
19.9439783665993
 11
185.655190959106
 21
15.2706619304882
 72
     2
 10
186.321859827834
 20
15.2706619304882
 40
0.66666886872801
 50
180.0
 51
240.0183606311481
 73
     1
 72
     1
 10
185.988710425088
 20
14.6932029657285
 11
188.15634562976
 21
13.4426441938023
 72
     2
 10
188.322919780923
 20
13.7313727224852
 40
0.3333333333332604
 50
240.0183606311836
 51
420.0183606311837
 73
     1
 72
     1
 10
188.489493932086
 20
14.0201012511681
 11
186.321857625773
 21
15.270660658657
 97
        7
330
9F
330
68
330
9E
330
67
330
9D
330
66
330
69
 75
     0
 76
     1
 98
        1
 10
0.0
 20
0.0
  0
HATCH
  5
F4
330
4D
100
AcDbEntity
  8
Schraffur
  6
Continuous
 62
     7
100
AcDbHatch
 10
0.0
 20
0.0
 30
0.0
210
0.0
220
0.0
230
1.0
  2
SOLID
 70
     1
 71
     1
 91
        1
 92
        1
 93
        4
 72
     1
 10
184.988523283636
 20
19.1539094835628
 11
184.988523283636
 21
15.8473707016896
 72
     2
 10
184.655189950303
 20
15.8473707016896
 40
0.3333333333330017
 50
0.0
 51
180.0
 73
     0
 72
     1
 10
184.32185661697
 20
15.8473707016896
 11
184.32185661697
 21
19.1539094835628
 72
     2
 10
184.655189950303
 20
19.1539094835628
 40
0.3333333333330017
 50
180.0
 51
360.0
 73
     0
 97
        4
330
6A
330
A0
330
6B
330
A1
 75
     0
 76
     1
 98
        1
 10
0.0
 20
0.0
  0
ENDBLK
  5
4F
330
4D
100
AcDbEntity
  8
0
100
AcDbBlockEnd
  0
BLOCK
  5
51
330
50
100
AcDbEntity
  8
0
100
AcDbBlockBegin
  2
Ränder_Ilme_Rahmen_A4_quer
 70
     0
 10
0.0
 20
0.0
 30
0.0
  3
Ränder_Ilme_Rahmen_A4_quer
  1

  0
LWPOLYLINE
  5
FA
330
50
100
AcDbEntity
  8
Skizziergeometrie_ISO_
  6
Continuous
 62
     7
100
AcDbPolyline
 90
        2
 70
     0
 43
0.5
 10
287.0
 20
190.0
 10
287.0
 20
10.0
  0
LWPOLYLINE
  5
FB
330
50
100
AcDbEntity
  8
Skizziergeometrie_ISO_
  6
Continuous
 62
     7
100
AcDbPolyline
 90
        2
 70
     0
 43
0.5
 10
148.5
 20
210.0
 10
148.5
 20
196.0
  0
LWPOLYLINE
  5
FC
330
50
100
AcDbEntity
  8
Skizziergeometrie_ISO_
  6
Continuous
 62
     7
100
AcDbPolyline
 90
        2
 70
     0
 43
0.5
 10
9.99999999999998
 20
9.99999999999995
 10
287.0
 20
10.0
  0
LWPOLYLINE
  5
FD
330
50
100
AcDbEntity
  8
Skizziergeometrie_ISO_
  6
Continuous
 62
     7
100
AcDbPolyline
 90
        2
 70
     0
 43
0.5
 10
10.0
 20
190.0
 10
287.0
 20
190.0
  0
LWPOLYLINE
  5
FE
330
50
100
AcDbEntity
  8
Skizziergeometrie_ISO_
  6
Continuous
 62
     7
100
AcDbPolyline
 90
        2
 70
     0
 43
0.5
 10
9.99999999999998
 20
9.99999999999995
 10
10.0
 20
190.0
  0
MTEXT
  5
FF
330
50
100
AcDbEntity
  8
Symbole_ISO_
 62
     7
100
AcDbMText
 10
148.5
 20
196.0
 30
0.0
 40
3.5
 41
0.0
 71
     2
 72
     1
  1
Diritti riservati     All rights reseved
  7
CONVERTER_12
 73
     1
 44
1.0
  0
ENDBLK
  5
52
330
50
100
AcDbEntity
  8
0
100
AcDbBlockEnd
  0
BLOCK
  5
4EB
330
4E4
100
AcDbEntity
  8
0
100
AcDbBlockBegin
  2
*D3
 70
     1
 10
0.0
 20
0.0
 30
0.0
  3
*D3
  1

  0
LINE
  5
4E5
330
4E4
100
AcDbEntity
  8
Bemaßungen_TC_020513_DIN_
  6
Continuous
 62
     7
100
AcDbLine
 10
477.391574198469
 20
313.9967879955321
 30
0.0
 11
419.391574198469
 21
313.9967879955321
 31
0.0
  0
LINE
  5
4E6
330
4E4
100
AcDbEntity
  8
Bemaßungen_TC_020513_DIN_
  6
Continuous
 62
     7
100
AcDbLine
 10
477.391574198469
 20
280.34677755993
 30
0.0
 11
477.391574198469
 21
317.9967879955321
 31
0.0
  0
LINE
  5
4E7
330
4E4
100
AcDbEntity
  8
Bemaßungen_TC_020513_DIN_
  6
Continuous
 62
     7
100
AcDbLine
 10
419.391574198469
 20
280.34677755993
 30
0.0
 11
419.391574198469
 21
317.9967879955321
 31
0.0
  0
SOLID
  5
4E8
330
4E4
100
AcDbEntity
  8
Bemaßungen_TC_020513_DIN_
 62
     7
100
AcDbTrace
 10
472.391574198469
 20
313.3385255075952
 30
0.0
 11
472.391574198469
 21
314.6550504834691
 31
0.0
 12
477.391574198469
 22
313.9967879955321
 32
0.0
 13
477.391574198469
 23
313.9967879955321
 33
0.0
  0
SOLID
  5
4E9
330
4E4
100
AcDbEntity
  8
Bemaßungen_TC_020513_DIN_
 62
     7
100
AcDbTrace
 10
424.391574198469
 20
314.6550504834691
 30
0.0
 11
424.391574198469
 21
313.3385255075952
 31
0.0
 12
419.391574198469
 22
313.9967879955321
 32
0.0
 13
419.391574198469
 23
313.9967879955321
 33
0.0
  0
MTEXT
  5
4EA
330
4E4
100
AcDbEntity
  8
Bemaßungen_TC_020513_DIN_
 62
     7
100
AcDbMText
 10
446.2057759985668
 20
319.3144440874169
 30
0.0
 40
7.0
 41
0.0
 71
     7
 72
     1
  1
58
  7
CONVERTER_15
 11
0.9999999999882478
 21
4.848136811095759E-6
 31
0.0
 73
     1
 44
0.60024009603842
  0
ENDBLK
  5
4EC
330
4E4
100
AcDbEntity
  8
0
100
AcDbBlockEnd
  0
BLOCK
  5
4F6
330
4EF
100
AcDbEntity
  8
0
100
AcDbBlockBegin
  2
*D4
 70
     1
 10
0.0
 20
0.0
 30
0.0
  3
*D4
  1

  0
LINE
  5
4F0
330
4EF
100
AcDbEntity
  8
Bemaßungen_TC_020513_DIN_
  6
Continuous
 62
     7
100
AcDbLine
 10
531.8915741984587
 20
207.84677755993
 30
0.0
 11
531.8915741984587
 21
287.84677755993
 31
0.0
  0
LINE
  5
4F1
330
4EF
100
AcDbEntity
  8
Bemaßungen_TC_020513_DIN_
  6
Continuous
 62
     7
100
AcDbLine
 10
477.891574198459
 20
207.84677755993
 30
0.0
 11
535.8915741984587
 21
207.84677755993
 31
0.0
  0
LINE
  5
4F2
330
4EF
100
AcDbEntity
  8
Bemaßungen_TC_020513_DIN_
  6
Continuous
 62
     7
100
AcDbLine
 10
466.391574198462
 20
287.84677755993
 30
0.0
 11
535.8915741984587
 21
287.84677755993
 31
0.0
  0
SOLID
  5
4F3
330
4EF
100
AcDbEntity
  8
Bemaßungen_TC_020513_DIN_
 62
     7
100
AcDbTrace
 10
531.2333117105217
 20
212.84677755993
 30
0.0
 11
532.5498366863957
 21
212.84677755993
 31
0.0
 12
531.8915741984587
 22
207.84677755993
 32
0.0
 13
531.8915741984587
 23
207.84677755993
 33
0.0
  0
SOLID
  5
4F4
330
4EF
100
AcDbEntity
  8
Bemaßungen_TC_020513_DIN_
 62
     7
100
AcDbTrace
 10
532.5498366863957
 20
282.84677755993
 30
0.0
 11
531.2333117105217
 21
282.84677755993
 31
0.0
 12
531.8915741984587
 22
287.84677755993
 32
0.0
 13
531.8915741984587
 23
287.84677755993
 33
0.0
  0
MTEXT
  5
4F5
330
4EF
100
AcDbEntity
  8
Bemaßungen_TC_020513_DIN_
 62
     7
100
AcDbMText
 10
526.5739006290614
 20
245.6636306749823
 30
0.0
 40
7.0
 41
0.0
 71
     7
 72
     1
  1
80
  7
CONVERTER_15
 11
0.0
 21
1.0
 31
0.0
 73
     1
 44
0.60024009603842
  0
ENDBLK
  5
4F7
330
4EF
100
AcDbEntity
  8
0
100
AcDbBlockEnd
  0
BLOCK
  5
503
330
4FA
100
AcDbEntity
  8
0
100
AcDbBlockBegin
  2
*D5
 70
     1
 10
0.0
 20
0.0
 30
0.0
  3
*D5
  1

  0
LINE
  5
4FB
330
4FA
100
AcDbEntity
  8
Bemaßungen_TC_020513_DIN_
  6
Continuous
 62
     7
100
AcDbLine
 10
495.8915741984582
 20
221.84677755993
 30
0.0
 11
495.8915741984582
 21
211.84677755993
 31
0.0
  0
LINE
  5
4FC
330
4FA
100
AcDbEntity
  8
Bemaßungen_TC_020513_DIN_
  6
Continuous
 62
     7
100
AcDbLine
 10
495.8915741984582
 20
211.84677755993
 30
0.0
 11
495.8915741984582
 21
207.84677755993
 31
0.0
  0
LINE
  5
4FD
330
4FA
100
AcDbEntity
  8
Bemaßungen_TC_020513_DIN_
  6
Continuous
 62
     7
100
AcDbLine
 10
495.8915741984582
 20
207.84677755993
 30
0.0
 11
495.8915741984582
 21
186.123683804114
 31
0.0
  0
LINE
  5
4FE
330
4FA
100
AcDbEntity
  8
Bemaßungen_TC_020513_DIN_
  6
Continuous
 62
     7
100
AcDbLine
 10
477.8915741984579
 20
211.84677755993
 30
0.0
 11
499.8915741984582
 21
211.84677755993
 31
0.0
  0
LINE
  5
4FF
330
4FA
100
AcDbEntity
  8
Bemaßungen_TC_020513_DIN_
  6
Continuous
 62
     7
100
AcDbLine
 10
477.891574198459
 20
207.84677755993
 30
0.0
 11
499.8915741984582
 21
207.84677755993
 31
0.0
  0
SOLID
  5
500
330
4FA
100
AcDbEntity
  8
Bemaßungen_TC_020513_DIN_
 62
     7
100
AcDbTrace
 10
495.2333117105212
 20
216.84677755993
 30
0.0
 11
496.5498366863951
 21
216.84677755993
 31
0.0
 12
495.8915741984582
 22
211.84677755993
 32
0.0
 13
495.8915741984582
 23
211.84677755993
 33
0.0
  0
SOLID
  5
501
330
4FA
100
AcDbEntity
  8
Bemaßungen_TC_020513_DIN_
 62
     7
100
AcDbTrace
 10
496.5498366863951
 20
202.84677755993
 30
0.0
 11
495.2333117105212
 21
202.84677755993
 31
0.0
 12
495.8915741984582
 22
207.84677755993
 32
0.0
 13
495.8915741984582
 23
207.84677755993
 33
0.0
  0
MTEXT
  5
502
330
4FA
100
AcDbEntity
  8
Bemaßungen_TC_020513_DIN_
 62
     7
100
AcDbMText
 10
490.791574198458
 20
186.123683804114
 30
0.0
 40
7.0
 41
0.0
 71
     7
 72
     1
  1
4
  7
CONVERTER_15
 11
0.0
 21
1.0
 31
0.0
 73
     1
 44
0.60024009603842
  0
ENDBLK
  5
504
330
4FA
100
AcDbEntity
  8
0
100
AcDbBlockEnd
  0
BLOCK
  5
50E
330
507
100
AcDbEntity
  8
0
100
AcDbBlockBegin
  2
*D6
 70
     1
 10
0.0
 20
0.0
 30
0.0
  3
*D6
  1

  0
LINE
  5
508
330
507
100
AcDbEntity
  8
Bemaßungen_TC_020513_DIN_
  6
Continuous
 62
     7
100
AcDbLine
 10
476.891574198459
 20
163.8467879955318
 30
0.0
 11
419.891574198459
 21
163.8467879955318
 31
0.0
  0
LINE
  5
509
330
507
100
AcDbEntity
  8
Bemaßungen_TC_020513_DIN_
  6
Continuous
 62
     7
100
AcDbLine
 10
476.891574198459
 20
205.84677755993
 30
0.0
 11
476.891574198459
 21
159.8467879955318
 31
0.0
  0
LINE
  5
50A
330
507
100
AcDbEntity
  8
Bemaßungen_TC_020513_DIN_
  6
Continuous
 62
     7
100
AcDbLine
 10
419.891574198459
 20
205.84677755993
 30
0.0
 11
419.891574198459
 21
159.8467879955318
 31
0.0
  0
SOLID
  5
50B
330
507
100
AcDbEntity
  8
Bemaßungen_TC_020513_DIN_
 62
     7
100
AcDbTrace
 10
471.891574198459
 20
163.1885255075948
 30
0.0
 11
471.891574198459
 21
164.5050504834688
 31
0.0
 12
476.891574198459
 22
163.8467879955318
 32
0.0
 13
476.891574198459
 23
163.8467879955318
 33
0.0
  0
SOLID
  5
50C
330
507
100
AcDbEntity
  8
Bemaßungen_TC_020513_DIN_
 62
     7
100
AcDbTrace
 10
424.891574198459
 20
164.5050504834688
 30
0.0
 11
424.891574198459
 21
163.1885255075948
 31
0.0
 12
419.891574198459
 22
163.8467879955318
 32
0.0
 13
419.891574198459
 23
163.8467879955318
 33
0.0
  0
MTEXT
  5
50D
330
507
100
AcDbEntity
  8
Bemaßungen_TC_020513_DIN_
 62
     7
100
AcDbMText
 10
446.2012715939919
 20
169.1357946730511
 30
0.0
 40
7.0
 41
0.0
 71
     7
 72
     1
  1
57
  7
CONVERTER_15
 11
0.9999999999882478
 21
4.848136811095759E-6
 31
0.0
 73
     1
 44
0.60024009603842
  0
ENDBLK
  5
50F
330
507
100
AcDbEntity
  8
0
100
AcDbBlockEnd
  0
BLOCK
  5
519
330
512
100
AcDbEntity
  8
0
100
AcDbBlockBegin
  2
*D7
 70
     1
 10
0.0
 20
0.0
 30
0.0
  3
*D7
  1

  0
LINE
  5
513
330
512
100
AcDbEntity
  8
Bemaßungen_TC_020513_DIN_
  6
Continuous
 62
     7
100
AcDbLine
 10
470.891574198461
 20
182.8467879955319
 30
0.0
 11
425.891574198461
 21
182.8467879955319
 31
0.0
  0
LINE
  5
514
330
512
100
AcDbEntity
  8
Bemaßungen_TC_020513_DIN_
  6
Continuous
 62
     7
100
AcDbLine
 10
470.891574198461
 20
200.84677755993
 30
0.0
 11
470.891574198461
 21
178.8467879955319
 31
0.0
  0
LINE
  5
515
330
512
100
AcDbEntity
  8
Bemaßungen_TC_020513_DIN_
  6
Continuous
 62
     7
100
AcDbLine
 10
425.891574198461
 20
200.84677755993
 30
0.0
 11
425.891574198461
 21
178.8467879955319
 31
0.0
  0
SOLID
  5
516
330
512
100
AcDbEntity
  8
Bemaßungen_TC_020513_DIN_
 62
     7
100
AcDbTrace
 10
465.891574198461
 20
182.1885255075949
 30
0.0
 11
465.891574198461
 21
183.5050504834689
 31
0.0
 12
470.891574198461
 22
182.8467879955319
 32
0.0
 13
470.891574198461
 23
182.8467879955319
 33
0.0
  0
SOLID
  5
517
330
512
100
AcDbEntity
  8
Bemaßungen_TC_020513_DIN_
 62
     7
100
AcDbTrace
 10
430.891574198461
 20
183.5050504834689
 30
0.0
 11
430.891574198461
 21
182.1885255075949
 31
0.0
 12
425.891574198461
 22
182.8467879955319
 32
0.0
 13
425.891574198461
 23
182.8467879955319
 33
0.0
  0
MTEXT
  5
518
330
512
100
AcDbEntity
  8
Bemaßungen_TC_020513_DIN_
 62
     7
100
AcDbMText
 10
446.034150217377
 20
188.1357946730512
 30
0.0
 40
7.0
 41
0.0
 71
     7
 72
     1
  1
45
  7
CONVERTER_15
 11
0.9999999999882478
 21
4.848136811095759E-6
 31
0.0
 73
     1
 44
0.60024009603842
  0
ENDBLK
  5
51A
330
512
100
AcDbEntity
  8
0
100
AcDbBlockEnd
  0
BLOCK
  5
524
330
51D
100
AcDbEntity
  8
0
100
AcDbBlockBegin
  2
*D8
 70
     1
 10
0.0
 20
0.0
 30
0.0
  3
*D8
  1

  0
LINE
  5
51E
330
51D
100
AcDbEntity
  8
Bemaßungen_TC_020513_DIN_
  6
Continuous
 62
     7
100
AcDbLine
 10
352.542315150745
 20
212.34677755993
 30
0.0
 11
352.542315150745
 21
252.34677755993
 31
0.0
  0
LINE
  5
51F
330
51D
100
AcDbEntity
  8
Bemaßungen_TC_020513_DIN_
  6
Continuous
 62
     7
100
AcDbLine
 10
322.5423151507453
 20
212.34677755993
 30
0.0
 11
356.542315150745
 21
212.34677755993
 31
0.0
  0
LINE
  5
520
330
51D
100
AcDbEntity
  8
Bemaßungen_TC_020513_DIN_
  6
Continuous
 62
     7
100
AcDbLine
 10
322.5423151507453
 20
252.34677755993
 30
0.0
 11
356.542315150745
 21
252.34677755993
 31
0.0
  0
SOLID
  5
521
330
51D
100
AcDbEntity
  8
Bemaßungen_TC_020513_DIN_
 62
     7
100
AcDbTrace
 10
351.8840526628081
 20
217.34677755993
 30
0.0
 11
353.200577638682
 21
217.34677755993
 31
0.0
 12
352.542315150745
 22
212.34677755993
 32
0.0
 13
352.542315150745
 23
212.34677755993
 33
0.0
  0
SOLID
  5
522
330
51D
100
AcDbEntity
  8
Bemaßungen_TC_020513_DIN_
 62
     7
100
AcDbTrace
 10
353.200577638682
 20
247.34677755993
 30
0.0
 11
351.8840526628081
 21
247.34677755993
 31
0.0
 12
352.542315150745
 22
252.34677755993
 32
0.0
 13
352.542315150745
 23
252.34677755993
 33
0.0
  0
MTEXT
  5
523
330
51D
100
AcDbEntity
  8
Bemaßungen_TC_020513_DIN_
 62
     7
100
AcDbMText
 10
347.8863331236364
 20
226.9203769232763
 30
0.0
 40
7.0
 41
0.0
 71
     7
 72
     1
  1
M32
  7
CONVERTER_15
 11
0.0
 21
1.0
 31
0.0
 73
     1
 44
0.60024009603842
  0
ENDBLK
  5
525
330
51D
100
AcDbEntity
  8
0
100
AcDbBlockEnd
  0
BLOCK
  5
52F
330
528
100
AcDbEntity
  8
0
100
AcDbBlockBegin
  2
*D9
 70
     1
 10
0.0
 20
0.0
 30
0.0
  3
*D9
  1

  0
LINE
  5
529
330
528
100
AcDbEntity
  8
Bemaßungen_TC_020513_DIN_
  6
Continuous
 62
     7
100
AcDbLine
 10
326.359302448852
 20
163.8467932133386
 30
0.0
 11
182.359302448852
 21
163.8467932133386
 31
0.0
  0
LINE
  5
52A
330
528
100
AcDbEntity
  8
Bemaßungen_TC_020513_DIN_
  6
Continuous
 62
     7
100
AcDbLine
 10
326.359302448852
 20
205.84677755993
 30
0.0
 11
326.359302448852
 21
159.8467932133386
 31
0.0
  0
LINE
  5
52B
330
528
100
AcDbEntity
  8
Bemaßungen_TC_020513_DIN_
  6
Continuous
 62
     7
100
AcDbLine
 10
182.359302448852
 20
205.84677755993
 30
0.0
 11
182.359302448852
 21
159.8467932133386
 31
0.0
  0
SOLID
  5
52C
330
528
100
AcDbEntity
  8
Bemaßungen_TC_020513_DIN_
 62
     7
100
AcDbTrace
 10
321.359302448852
 20
163.1885307254016
 30
0.0
 11
321.359302448852
 21
164.5050557012756
 31
0.0
 12
326.359302448852
 22
163.8467932133386
 32
0.0
 13
326.359302448852
 23
163.8467932133386
 33
0.0
  0
SOLID
  5
52D
330
528
100
AcDbEntity
  8
Bemaßungen_TC_020513_DIN_
 62
     7
100
AcDbTrace
 10
187.359302448852
 20
164.5050557012756
 30
0.0
 11
187.359302448852
 21
163.1885307254016
 31
0.0
 12
182.359302448852
 22
163.8467932133386
 32
0.0
 13
182.359302448852
 23
163.8467932133386
 33
0.0
  0
MTEXT
  5
52E
330
528
100
AcDbEntity
  8
Bemaßungen_TC_020513_DIN_
 62
     7
100
AcDbMText
 10
251.1468217503833
 20
168.975416199319
 30
0.0
 40
7.0
 41
0.0
 71
     7
 72
     1
  1
144
  7
CONVERTER_15
 11
0.9999999999882478
 21
4.848136811095759E-6
 31
0.0
 73
     1
 44
0.60024009603842
  0
ENDBLK
  5
530
330
528
100
AcDbEntity
  8
0
100
AcDbBlockEnd
  0
BLOCK
  5
53A
330
533
100
AcDbEntity
  8
0
100
AcDbBlockBegin
  2
*D10
 70
     1
 10
0.0
 20
0.0
 30
0.0
  3
*D10
  1

  0
LINE
  5
534
330
533
100
AcDbEntity
  8
Bemaßungen_TC_020513_DIN_
  6
Continuous
 62
     7
100
AcDbLine
 10
319.359302448852
 20
182.8467932133383
 30
0.0
 11
189.359302448852
 21
182.8467932133383
 31
0.0
  0
LINE
  5
535
330
533
100
AcDbEntity
  8
Bemaßungen_TC_020513_DIN_
  6
Continuous
 62
     7
100
AcDbLine
 10
319.359302448852
 20
200.8467775599296
 30
0.0
 11
319.359302448852
 21
178.8467932133383
 31
0.0
  0
LINE
  5
536
330
533
100
AcDbEntity
  8
Bemaßungen_TC_020513_DIN_
  6
Continuous
 62
     7
100
AcDbLine
 10
189.359302448852
 20
200.8467775599296
 30
0.0
 11
189.359302448852
 21
178.8467932133383
 31
0.0
  0
SOLID
  5
537
330
533
100
AcDbEntity
  8
Bemaßungen_TC_020513_DIN_
 62
     7
100
AcDbTrace
 10
314.359302448852
 20
182.1885307254013
 30
0.0
 11
314.359302448852
 21
183.5050557012752
 31
0.0
 12
319.359302448852
 22
182.8467932133383
 32
0.0
 13
319.359302448852
 23
182.8467932133383
 33
0.0
  0
SOLID
  5
538
330
533
100
AcDbEntity
  8
Bemaßungen_TC_020513_DIN_
 62
     7
100
AcDbTrace
 10
194.359302448852
 20
183.5050557012752
 30
0.0
 11
194.359302448852
 21
182.1885307254013
 31
0.0
 12
189.359302448852
 22
182.8467932133383
 32
0.0
 13
189.359302448852
 23
182.8467932133383
 33
0.0
  0
MTEXT
  5
539
330
533
100
AcDbEntity
  8
Bemaßungen_TC_020513_DIN_
 62
     7
100
AcDbMText
 10
251.1794342171229
 20
187.5075238228658
 30
0.0
 40
7.0
 41
0.0
 71
     7
 72
     1
  1
132
  7
CONVERTER_15
 11
0.9999999999882478
 21
4.848136811095759E-6
 31
0.0
 73
     1
 44
0.60024009603842
  0
ENDBLK
  5
53B
330
533
100
AcDbEntity
  8
0
100
AcDbBlockEnd
  0
BLOCK
  5
545
330
53E
100
AcDbEntity
  8
0
100
AcDbBlockBegin
  2
*D11
 70
     1
 10
0.0
 20
0.0
 30
0.0
  3
*D11
  1

  0
LINE
  5
53F
330
53E
100
AcDbEntity
  8
Bemaßungen_TC_020513_DIN_
  6
Continuous
 62
     7
100
AcDbLine
 10
344.36155668661
 20
322.3467932133393
 30
0.0
 11
164.357048211095
 21
322.3467932133393
 31
0.0
  0
LINE
  5
540
330
53E
100
AcDbEntity
  8
Bemaßungen_TC_020513_DIN_
  6
Continuous
 62
     7
100
AcDbLine
 10
344.36155668661
 20
280.3467775599299
 30
0.0
 11
344.36155668661
 21
326.3467932133393
 31
0.0
  0
LINE
  5
541
330
53E
100
AcDbEntity
  8
Bemaßungen_TC_020513_DIN_
  6
Continuous
 62
     7
100
AcDbLine
 10
164.357048211095
 20
280.3467775599299
 30
0.0
 11
164.357048211095
 21
326.3467932133393
 31
0.0
  0
SOLID
  5
542
330
53E
100
AcDbEntity
  8
Bemaßungen_TC_020513_DIN_
 62
     7
100
AcDbTrace
 10
339.36155668661
 20
321.6885307254024
 30
0.0
 11
339.36155668661
 21
323.0050557012763
 31
0.0
 12
344.36155668661
 22
322.3467932133393
 32
0.0
 13
344.36155668661
 23
322.3467932133393
 33
0.0
  0
SOLID
  5
543
330
53E
100
AcDbEntity
  8
Bemaßungen_TC_020513_DIN_
 62
     7
100
AcDbTrace
 10
169.357048211095
 20
323.0050557012763
 30
0.0
 11
169.357048211095
 21
321.6885307254024
 31
0.0
 12
164.357048211095
 22
322.3467932133393
 32
0.0
 13
164.357048211095
 23
322.3467932133393
 33
0.0
  0
MTEXT
  5
544
330
53E
100
AcDbEntity
  8
Bemaßungen_TC_020513_DIN_
 62
     7
100
AcDbMText
 10
251.1444342171229
 20
327.6644403826323
 30
0.0
 40
7.0
 41
0.0
 71
     7
 72
     1
  1
180
  7
CONVERTER_15
 11
0.9999999999882478
 21
4.848136811095759E-6
 31
0.0
 73
     1
 44
0.60024009603842
  0
ENDBLK
  5
546
330
53E
100
AcDbEntity
  8
0
100
AcDbBlockEnd
  0
ENDSEC
  0
SECTION
  2
ENTITIES
  0
INSERT
  5
53
330
1F
100
AcDbEntity
  8
0
100
AcDbBlockReference
  2
Schriftfelder_Ilme
 10
174.039620099394
 20
-0.0012801852525
 30
0.0
 41
2.0
 42
2.0
 43
2.0
  0
INSERT
  5
54
330
1F
100
AcDbEntity
  8
0
100
AcDbBlockReference
  2
Ränder_Ilme_Rahmen_A4_quer
 10
0.0
 20
0.0
 30
0.0
 41
2.0
 42
2.0
 43
2.0
  0
POINT
  5
100
330
1F
100
AcDbEntity
  8
Bemaßungen_TC_020513_DIN_
 62
     7
100
AcDbPoint
 10
477.391574198469
 20
278.34677755993
 30
0.0
  0
POINT
  5
101
330
1F
100
AcDbEntity
  8
Bemaßungen_TC_020513_DIN_
 62
     7
100
AcDbPoint
 10
419.391574198469
 20
278.34677755993
 30
0.0
  0
POINT
  5
102
330
1F
100
AcDbEntity
  8
Bemaßungen_TC_020513_DIN_
 62
     7
100
AcDbPoint
 10
475.891574198459
 20
207.84677755993
 30
0.0
  0
POINT
  5
103
330
1F
100
AcDbEntity
  8
Bemaßungen_TC_020513_DIN_
 62
     7
100
AcDbPoint
 10
464.391574198462
 20
287.84677755993
 30
0.0
  0
POINT
  5
104
330
1F
100
AcDbEntity
  8
Bemaßungen_TC_020513_DIN_
 62
     7
100
AcDbPoint
 10
475.891574198458
 20
211.84677755993
 30
0.0
  0
POINT
  5
105
330
1F
100
AcDbEntity
  8
Bemaßungen_TC_020513_DIN_
 62
     7
100
AcDbPoint
 10
475.891574198459
 20
207.84677755993
 30
0.0
  0
POINT
  5
106
330
1F
100
AcDbEntity
  8
Bemaßungen_TC_020513_DIN_
 62
     7
100
AcDbPoint
 10
476.891574198459
 20
207.84677755993
 30
0.0
  0
POINT
  5
107
330
1F
100
AcDbEntity
  8
Bemaßungen_TC_020513_DIN_
 62
     7
100
AcDbPoint
 10
419.891574198459
 20
207.84677755993
 30
0.0
  0
POINT
  5
108
330
1F
100
AcDbEntity
  8
Bemaßungen_TC_020513_DIN_
 62
     7
100
AcDbPoint
 10
470.891574198461
 20
202.84677755993
 30
0.0
  0
POINT
  5
109
330
1F
100
AcDbEntity
  8
Bemaßungen_TC_020513_DIN_
 62
     7
100
AcDbPoint
 10
425.891574198461
 20
202.84677755993
 30
0.0
  0
POINT
  5
10A
330
1F
100
AcDbEntity
  8
Bemaßungen_TC_020513_DIN_
 62
     7
100
AcDbPoint
 10
320.542315150745
 20
212.34677755993
 30
0.0
  0
POINT
  5
10B
330
1F
100
AcDbEntity
  8
Bemaßungen_TC_020513_DIN_
 62
     7
100
AcDbPoint
 10
320.542315150745
 20
252.34677755993
 30
0.0
  0
POINT
  5
10C
330
1F
100
AcDbEntity
  8
Bemaßungen_TC_020513_DIN_
 62
     7
100
AcDbPoint
 10
326.359302448852
 20
207.84677755993
 30
0.0
  0
POINT
  5
10D
330
1F
100
AcDbEntity
  8
Bemaßungen_TC_020513_DIN_
 62
     7
100
AcDbPoint
 10
182.359302448852
 20
207.84677755993
 30
0.0
  0
POINT
  5
10E
330
1F
100
AcDbEntity
  8
Bemaßungen_TC_020513_DIN_
 62
     7
100
AcDbPoint
 10
319.359302448852
 20
202.84677755993
 30
0.0
  0
POINT
  5
10F
330
1F
100
AcDbEntity
  8
Bemaßungen_TC_020513_DIN_
 62
     7
100
AcDbPoint
 10
189.359302448852
 20
202.84677755993
 30
0.0
  0
POINT
  5
110
330
1F
100
AcDbEntity
  8
Bemaßungen_TC_020513_DIN_
 62
     7
100
AcDbPoint
 10
344.36155668661
 20
278.34677755993
 30
0.0
  0
POINT
  5
111
330
1F
100
AcDbEntity
  8
Bemaßungen_TC_020513_DIN_
 62
     7
100
AcDbPoint
 10
164.357048211095
 20
278.34677755993
 30
0.0
  0
POINT
  5
112
330
1F
100
AcDbEntity
  8
Bemaßungen_TC_020513_DIN_
 62
     7
100
AcDbPoint
 10
477.391574198469
 20
278.34677755993
 30
0.0
  0
POINT
  5
113
330
1F
100
AcDbEntity
  8
Bemaßungen_TC_020513_DIN_
 62
     7
100
AcDbPoint
 10
419.391574198469
 20
278.34677755993
 30
0.0
  0
POINT
  5
114
330
1F
100
AcDbEntity
  8
Bemaßungen_TC_020513_DIN_
 62
     7
100
AcDbPoint
 10
475.891574198459
 20
207.84677755993
 30
0.0
  0
POINT
  5
115
330
1F
100
AcDbEntity
  8
Bemaßungen_TC_020513_DIN_
 62
     7
100
AcDbPoint
 10
464.391574198462
 20
287.84677755993
 30
0.0
  0
POINT
  5
116
330
1F
100
AcDbEntity
  8
Bemaßungen_TC_020513_DIN_
 62
     7
100
AcDbPoint
 10
475.891574198458
 20
211.84677755993
 30
0.0
  0
POINT
  5
117
330
1F
100
AcDbEntity
  8
Bemaßungen_TC_020513_DIN_
 62
     7
100
AcDbPoint
 10
475.891574198459
 20
207.84677755993
 30
0.0
  0
POINT
  5
118
330
1F
100
AcDbEntity
  8
Bemaßungen_TC_020513_DIN_
 62
     7
100
AcDbPoint
 10
476.891574198459
 20
207.84677755993
 30
0.0
  0
POINT
  5
119
330
1F
100
AcDbEntity
  8
Bemaßungen_TC_020513_DIN_
 62
     7
100
AcDbPoint
 10
419.891574198459
 20
207.84677755993
 30
0.0
  0
POINT
  5
11A
330
1F
100
AcDbEntity
  8
Bemaßungen_TC_020513_DIN_
 62
     7
100
AcDbPoint
 10
470.891574198461
 20
202.84677755993
 30
0.0
  0
POINT
  5
11B
330
1F
100
AcDbEntity
  8
Bemaßungen_TC_020513_DIN_
 62
     7
100
AcDbPoint
 10
425.891574198461
 20
202.84677755993
 30
0.0
  0
POINT
  5
11C
330
1F
100
AcDbEntity
  8
Bemaßungen_TC_020513_DIN_
 62
     7
100
AcDbPoint
 10
320.542315150745
 20
212.34677755993
 30
0.0
  0
POINT
  5
11D
330
1F
100
AcDbEntity
  8
Bemaßungen_TC_020513_DIN_
 62
     7
100
AcDbPoint
 10
320.542315150745
 20
252.34677755993
 30
0.0
  0
POINT
  5
11E
330
1F
100
AcDbEntity
  8
Bemaßungen_TC_020513_DIN_
 62
     7
100
AcDbPoint
 10
326.359302448852
 20
207.84677755993
 30
0.0
  0
POINT
  5
11F
330
1F
100
AcDbEntity
  8
Bemaßungen_TC_020513_DIN_
 62
     7
100
AcDbPoint
 10
182.359302448852
 20
207.84677755993
 30
0.0
  0
POINT
  5
120
330
1F
100
AcDbEntity
  8
Bemaßungen_TC_020513_DIN_
 62
     7
100
AcDbPoint
 10
319.359302448852
 20
202.84677755993
 30
0.0
  0
POINT
  5
121
330
1F
100
AcDbEntity
  8
Bemaßungen_TC_020513_DIN_
 62
     7
100
AcDbPoint
 10
189.359302448852
 20
202.84677755993
 30
0.0
  0
POINT
  5
122
330
1F
100
AcDbEntity
  8
Bemaßungen_TC_020513_DIN_
 62
     7
100
AcDbPoint
 10
344.36155668661
 20
278.34677755993
 30
0.0
  0
POINT
  5
123
330
1F
100
AcDbEntity
  8
Bemaßungen_TC_020513_DIN_
 62
     7
100
AcDbPoint
 10
164.357048211095
 20
278.34677755993
 30
0.0
  0
LINE
  5
334
102
{ACAD_REACTORS
330
549
330
549
102
}
330
1F
100
AcDbEntity
  8
Symbole_TC_020513_DIN_
  6
Continuous
 62
     7
100
AcDbLine
 10
473.595913483824
 20
216.103520273868
 30
0.0
 11
472.402039272773
 21
216.658409794662
 31
0.0
  0
LINE
  5
335
102
{ACAD_REACTORS
330
549
330
549
102
}
330
1F
100
AcDbEntity
  8
Symbole_TC_020513_DIN_
  6
Continuous
 62
     7
100
AcDbLine
 10
472.402039272773
 20
216.658409794662
 30
0.0
 11
470.891574198461
 21
211.84677755993
 31
0.0
  0
LINE
  5
336
102
{ACAD_REACTORS
330
549
330
549
102
}
330
1F
100
AcDbEntity
  8
Symbole_TC_020513_DIN_
  6
Continuous
 62
     7
100
AcDbLine
 10
470.891574198461
 20
211.84677755993
 30
0.0
 11
473.595913483824
 21
216.103520273868
 31
0.0
  0
SPLINE
  5
382
330
1F
100
AcDbEntity
  8
Sichtbare_Kanten_TC_020513_DIN_
  6
Continuous
 62
     7
100
AcDbSpline
210
0.0
220
0.0
230
1.0
 70
     8
 71
     3
 72
    27
 73
    23
 74
    21
 42
0.0000000001
 43
0.0000000001
 44
0.00000001
 40
0.0
 40
0.0
 40
0.0
 40
0.0
 40
0.3450997993703275
 40
0.6902010041827427
 40
0.7911531258966151
 40
0.8920441023637687
 40
0.9929144872619033
 40
1.093803191466498
 40
1.204363644482289
 40
1.314919571375205
 40
1.425491274121032
 40
1.536065443488932
 40
1.655034649922939
 40
1.774003594246435
 40
1.892968294089428
 40
2.011934092160629
 40
2.137363682424722
 40
2.262792424440828
 40
2.38822400854294
 40
2.513659273303795
 40
2.910920464689576
 40
3.308181619317429
 40
3.308181619317429
 40
3.308181619317429
 40
3.308181619317429
 10
434.364214345337
 20
270.755575920924
 30
0.0
 10
434.4223244389462
 20
270.6556182412584
 30
0.0
 10
434.5385448628218
 20
270.4557024748428
 30
0.0
 10
434.7357113807253
 20
270.2754116387167
 30
0.0
 10
434.8800007609365
 20
270.1642236812049
 30
0.0
 10
434.9627662747439
 20
270.1063895993237
 30
0.0
 10
435.047750760436
 20
270.0519978841236
 30
0.0
 10
435.1375420585973
 20
269.9992624524856
 30
0.0
 10
435.2320562772576
 20
269.9483394712594
 30
0.0
 10
435.3312553544275
 20
269.8994645118605
 30
0.0
 10
435.4320716006752
 20
269.8540144870284
 30
0.0
 10
435.5368880310083
 20
269.8107624084953
 30
0.0
 10
435.6456264794523
 20
269.7698214714516
 30
0.0
 10
435.7582265860542
 20
269.731366038725
 30
0.0
 10
435.8719128585225
 20
269.6962602230459
 30
0.0
 10
435.9886175943491
 20
269.6637995262469
 30
0.0
 10
436.1082653518046
 20
269.6340484644961
 30
0.0
 10
436.2307882142281
 20
269.6071355100464
 30
0.0
 10
436.3539860780241
 20
269.583467281003
 30
0.0
 10
436.5671480221607
 20
269.5483257894836
 30
0.0
 10
436.8722232518495
 20
269.5125921102893
 30
0.0
 10
437.137118796309
 20
269.5070035364777
 30
0.0
 10
437.269566562411
 20
269.504209249701
 30
0.0
 11
434.364214345337
 21
270.755575920924
 31
0.0
 11
434.5524914197161
 21
270.4663604047623
 31
0.0
 11
434.800453836005
 21
270.2263406520935
 31
0.0
 11
434.8805017117857
 21
270.1648291209671
 31
0.0
 11
434.9631446894256
 21
270.1069574752387
 31
0.0
 11
435.0480833515232
 21
270.0525492200695
 31
0.0
 11
435.1350512144861
 21
270.0014109619083
 31
0.0
 11
435.2323647268556
 21
269.9489353096363
 31
0.0
 11
435.33151943402
 21
269.9000378964299
 31
0.0
 11
435.4323054220074
 21
269.8545594831602
 31
0.0
 11
435.5345047616983
 21
269.812346429514
 31
0.0
 11
435.645833855888
 21
269.7703999771439
 31
0.0
 11
435.7584091390034
 21
269.7319238112105
 31
0.0
 11
435.8720697422631
 21
269.6967973671066
 31
0.0
 11
435.986677283741
 21
269.664891685056
 31
0.0
 11
436.1083961686872
 21
269.6346081059864
 31
0.0
 11
436.2308994770457
 21
269.6076765489395
 31
0.0
 11
436.3540784510901
 21
269.584011751376
 31
0.0
 11
436.4778297473425
 21
269.563527066329
 31
0.0
 11
436.8725775154439
 21
269.5189103232805
 31
0.0
 11
437.269566562411
 21
269.504209249701
 31
0.0
  0
SPLINE
  5
383
330
1F
100
AcDbEntity
  8
Sichtbare_Kanten_TC_020513_DIN_
  6
Continuous
 62
     7
100
AcDbSpline
210
0.0
220
0.0
230
1.0
 70
     8
 71
     3
 72
    27
 73
    23
 74
    21
 42
0.0000000001
 43
0.0000000001
 44
0.00000001
 40
0.0
 40
0.0
 40
0.0
 40
0.0
 40
0.5168268067887212
 40
1.033653609017898
 40
1.156312520523251
 40
1.278965718334496
 40
1.401620660577353
 40
1.524276865996825
 40
1.639485906231544
 40
1.754693626916898
 40
1.869904008499917
 40
1.98511439974451
 40
2.091233322922415
 40
2.197350115180044
 40
2.303454218674301
 40
2.409560588425955
 40
2.50571311571756
 40
2.601854269310664
 40
2.698019585419207
 40
2.794218317417569
 40
3.051471926947779
 40
3.308723216353614
 40
3.308723216353614
 40
3.308723216353614
 40
3.308723216353614
 10
459.513581834497
 20
269.504209249702
 30
0.0
 10
459.6859151338476
 20
269.508940423299
 30
0.0
 10
460.0305817310284
 20
269.5184027704512
 30
0.0
 10
460.4126755407993
 20
269.5771586628233
 30
0.0
 10
460.660973474724
 20
269.6308328065383
 30
0.0
 10
460.7801262556902
 20
269.6600255090298
 30
0.0
 10
460.8984202345311
 20
269.6924959304347
 30
0.0
 10
461.0133551674494
 20
269.7276517992034
 30
0.0
 10
461.1248647214153
 20
269.76534252662
 30
0.0
 10
461.2328737051117
 20
269.8054846197413
 30
0.0
 10
461.3395635787666
 20
269.8490177024523
 30
0.0
 10
461.4419818765601
 20
269.8948409383186
 30
0.0
 10
461.5400750559034
 20
269.9427526748884
 30
0.0
 10
461.633769391394
 20
269.9926150867935
 30
0.0
 10
461.7255445186922
 20
270.0459256816908
 30
0.0
 10
461.8123287359036
 20
270.101058833578
 30
0.0
 10
461.8940936816931
 20
270.1577484802395
 30
0.0
 10
461.9707611790917
 20
270.2158171347912
 30
0.0
 10
462.0447858105226
 20
270.2773032093322
 30
0.0
 10
462.1549646708023
 20
270.378796200745
 30
0.0
 10
462.2941992513985
 20
270.52965763671
 30
0.0
 10
462.377355909844
 20
270.6802700525795
 30
0.0
 10
462.418934051572
 20
270.755575920926
 30
0.0
 11
459.513581834497
 21
269.504209249702
 31
0.0
 11
460.0298056326101
 21
269.5291679851887
 31
0.0
 11
460.5409824410009
 21
269.6053796251518
 31
0.0
 11
460.6608540732238
 21
269.6313796320729
 31
0.0
 11
460.7799827060398
 21
269.6605716819616
 31
0.0
 11
460.8982555247676
 21
269.6930643766296
 31
0.0
 11
461.0155410415101
 21
269.7289621800491
 31
0.0
 11
461.1246736392519
 21
269.7658837057751
 31
0.0
 11
461.2326529574703
 21
269.8060494342335
 31
0.0
 11
461.3393126397908
 21
269.8496056529835
 31
0.0
 11
461.4444633715414
 21
269.8966881111082
 31
0.0
 11
461.5397971984594
 21
269.9433002050495
 31
0.0
 11
461.6334538314641
 21
269.9931921752779
 31
0.0
 11
461.7251794505474
 21
270.0465259505249
 31
0.0
 11
461.8147168431437
 21
270.1034611507874
 31
0.0
 11
461.8937011953079
 21
270.1582952698901
 31
0.0
 11
461.9703124136711
 21
270.2163800582182
 31
0.0
 11
462.0442229511667
 21
270.2779024156939
 31
0.0
 11
462.1150514919381
 21
270.3429986049088
 31
0.0
 11
462.2856633202956
 21
270.5355369741779
 31
0.0
 11
462.418934051572
 21
270.755575920926
 31
0.0
  0
SPLINE
  5
384
330
1F
100
AcDbEntity
  8
Sichtbare_Kanten_TC_020513_DIN_
  6
Continuous
 62
     7
100
AcDbSpline
210
0.0
220
0.0
230
1.0
 70
     8
 71
     3
 72
    27
 73
    23
 74
    21
 42
0.0000000001
 43
0.0000000001
 44
0.00000001
 40
0.0
 40
0.0
 40
0.0
 40
0.0
 40
0.5141862601636801
 40
1.028372514755679
 40
1.149852675313739
 40
1.271327136466187
 40
1.392803701086182
 40
1.514281460337066
 40
1.628135133819792
 40
1.741987455804732
 40
1.85584200655603
 40
1.969696395766174
 40
2.074457533180025
 40
2.179216762866616
 40
2.283964131555845
 40
2.388712581805351
 40
2.48372559426096
 40
2.578730671749871
 40
2.673762173983796
 40
2.768813915613506
 40
2.991589679489763
 40
3.214363902219823
 40
3.214363902219823
 40
3.214363902219823
 40
3.214363902219823
 10
466.84837951588
 20
275.480041682979
 30
0.0
 10
466.6770381573147
 20
275.4721543111739
 30
0.0
 10
466.3343554420408
 20
275.4563795676492
 30
0.0
 10
465.9556881783215
 20
275.389689033653
 30
0.0
 10
465.7103754494196
 20
275.3304362584223
 30
0.0
 10
465.5931276922688
 20
275.2985763077788
 30
0.0
 10
465.4768479717234
 20
275.2633722432299
 30
0.0
 10
465.3640843288908
 20
275.2254945734595
 30
0.0
 10
465.2549042620635
 20
275.1851035863821
 30
0.0
 10
465.1493851745721
 20
275.1422924298854
 30
0.0
 10
465.0453293193169
 20
275.0960326203004
 30
0.0
 10
464.9456649716284
 20
275.0475135714669
 30
0.0
 10
464.850445828417
 20
274.9969469995403
 30
0.0
 10
464.7597455512042
 20
274.9444834360062
 30
0.0
 10
464.6711500922073
 20
274.8885401650385
 30
0.0
 10
464.5876202058987
 20
274.8308178306213
 30
0.0
 10
464.5091843579617
 20
274.7715909114315
 30
0.0
 10
464.4359173581718
 20
274.7110501139072
 30
0.0
 10
464.3655337256441
 20
274.6471124402535
 30
0.0
 10
464.2687514290489
 20
274.549327586443
 30
0.0
 10
464.1516553167497
 20
274.4108357704396
 30
0.0
 10
464.081070146549
 20
274.2797720409058
 30
0.0
 10
464.045777683525
 20
274.214240402812
 30
0.0
 11
466.84837951588
 21
275.480041682979
 31
0.0
 11
466.3353607060857
 21
275.445412057825
 31
0.0
 11
465.8285753691249
 21
275.3584860740635
 31
0.0
 11
465.710511527372
 21
275.3298791049869
 31
0.0
 11
465.5932895759012
 21
275.2980191174531
 31
0.0
 11
465.4770329600796
 21
275.2627919258308
 31
0.0
 11
465.3618856917032
 21
275.224088533498
 31
0.0
 11
465.2551167433231
 21
275.1845530984135
 31
0.0
 11
465.1496297665461
 21
275.1417179615302
 31
0.0
 11
465.0456069803842
 21
275.0954349334758
 31
0.0
 11
464.9432542407848
 21
275.0455677234183
 31
0.0
 11
464.8507514952539
 21
274.9963931570095
 31
0.0
 11
464.7600923658445
 21
274.9439010770425
 31
0.0
 11
464.6715490595851
 21
274.8879359614439
 31
0.0
 11
464.5854009211691
 21
274.8283479083029
 31
0.0
 11
464.5096127849884
 21
274.771044933248
 31
0.0
 11
464.4364061798447
 21
274.7104911743886
 31
0.0
 11
464.366130889805
 21
274.6465195398411
 31
0.0
 11
464.2991989248894
 21
274.579029202315
 31
0.0
 11
464.1581356333273
 21
274.4066047587337
 31
0.0
 11
464.045777683525
 21
274.214240402812
 31
0.0
  0
SPLINE
  5
385
330
1F
100
AcDbEntity
  8
Sichtbare_Kanten_TC_020513_DIN_
  6
Continuous
 62
     7
100
AcDbSpline
210
0.0
220
0.0
230
1.0
 70
    24
 71
     3
 72
     9
 73
     5
 74
     3
 42
0.0000000001
 43
0.0000000001
 44
0.00000001
 40
0.0
 40
0.0
 40
0.0
 40
0.0
 40
0.0475908182094118
 40
0.0951816364187105
 40
0.0951816364187105
 40
0.0951816364187105
 40
0.0951816364187105
 10
466.943555162395
 20
275.520991122303
 30
0.0
 10
466.9276925546428
 20
275.5208131536589
 30
0.0
 10
466.8959673391385
 20
275.5204572163706
 30
0.0
 10
466.8642421236341
 20
275.5201012790822
 30
0.0
 10
466.848379515882
 20
275.519923310438
 30
0.0
 11
466.943555162395
 21
275.520991122303
 31
0.0
 11
466.8959673391385
 21
275.5204572163705
 31
0.0
 11
466.848379515882
 21
275.519923310438
 31
0.0
  0
SPLINE
  5
386
330
1F
100
AcDbEntity
  8
Sichtbare_Kanten_TC_020513_DIN_
  6
Continuous
 62
     7
100
AcDbSpline
210
0.0
220
0.0
230
1.0
 70
    24
 71
     3
 72
     9
 73
     5
 74
     3
 42
0.0000000001
 43
0.0000000001
 44
0.00000001
 40
0.0
 40
0.0
 40
0.0
 40
0.0
 40
0.0475908182094118
 40
0.0951816364187105
 40
0.0951816364187105
 40
0.0951816364187105
 40
0.0951816364187105
 10
466.943555162395
 20
270.571243653997
 30
0.0
 10
466.9276925546428
 20
270.5710656853528
 30
0.0
 10
466.8959673391385
 20
270.5707097480645
 30
0.0
 10
466.8642421236341
 20
270.5703538107762
 30
0.0
 10
466.848379515882
 20
270.570175842132
 30
0.0
 11
466.943555162395
 21
270.571243653997
 31
0.0
 11
466.8959673391385
 21
270.5707097480645
 31
0.0
 11
466.848379515882
 21
270.570175842132
 31
0.0
  0
SPLINE
  5
387
330
1F
100
AcDbEntity
  8
Sichtbare_Kanten_TC_020513_DIN_
  6
Continuous
 62
     7
100
AcDbSpline
210
0.0
220
0.0
230
1.0
 70
    24
 71
     3
 72
     9
 73
     5
 74
     3
 42
0.0000000001
 43
0.0000000001
 44
0.00000001
 40
0.0
 40
0.0
 40
0.0
 40
0.0
 40
0.0475908182092981
 40
0.0951816364187105
 40
0.0951816364187105
 40
0.0951816364187105
 40
0.0951816364187105
 10
429.934768881033
 20
270.570175842132
 30
0.0
 10
429.9189062732809
 20
270.5703538107762
 30
0.0
 10
429.8871810577766
 20
270.5707097480645
 30
0.0
 10
429.8554558422722
 20
270.5710656853528
 30
0.0
 10
429.83959323452
 20
270.571243653997
 30
0.0
 11
429.934768881033
 21
270.570175842132
 31
0.0
 11
429.8871810577766
 21
270.5707097480645
 31
0.0
 11
429.83959323452
 21
270.571243653997
 31
0.0
  0
SPLINE
  5
388
330
1F
100
AcDbEntity
  8
Sichtbare_Kanten_TC_020513_DIN_
  6
Continuous
 62
     7
100
AcDbSpline
210
0.0
220
0.0
230
1.0
 70
    24
 71
     3
 72
     9
 73
     5
 74
     3
 42
0.0000000001
 43
0.0000000001
 44
0.00000001
 40
0.0
 40
0.0
 40
0.0
 40
0.0
 40
0.0475908182093613
 40
0.0951816364187788
 40
0.0951816364187788
 40
0.0951816364187788
 40
0.0951816364187788
 10
429.934768881032
 20
275.519923310437
 30
0.0
 10
429.91890627328
 20
275.5201012790814
 30
0.0
 10
429.8871810577756
 20
275.52045721637
 30
0.0
 10
429.8554558422711
 20
275.5208131536587
 30
0.0
 10
429.839593234519
 20
275.520991122303
 30
0.0
 11
429.934768881032
 21
275.519923310437
 31
0.0
 11
429.8871810577755
 21
275.52045721637
 31
0.0
 11
429.839593234519
 21
275.520991122303
 31
0.0
  0
SPLINE
  5
389
330
1F
100
AcDbEntity
  8
Sichtbare_Kanten_TC_020513_DIN_
  6
Continuous
 62
     7
100
AcDbSpline
210
0.0
220
0.0
230
1.0
 70
     8
 71
     3
 72
    27
 73
    23
 74
    21
 42
0.0000000001
 43
0.0000000001
 44
0.00000001
 40
0.0
 40
0.0
 40
0.0
 40
0.0
 40
0.3497361600472275
 40
0.6994736061532367
 40
0.8012010451649931
 40
0.9028691692142607
 40
1.004518868263515
 40
1.106186340781363
 40
1.217265199574448
 40
1.328339719280012
 40
1.439429250282569
 40
1.550521174618339
 40
1.669775112169112
 40
1.789028837583863
 40
1.908278215622363
 40
2.027528606686378
 40
2.153045325108177
 40
2.278561510810949
 40
2.40408294723565
 40
2.529606867932771
 40
2.871642979526333
 40
3.213679059807129
 40
3.213679059807129
 40
3.213679059807129
 40
3.213679059807129
 10
432.737370713385
 20
274.214240402813
 30
0.0
 10
432.6786693570552
 20
274.3156330773753
 30
0.0
 10
432.5612664285375
 20
274.5184187993437
 30
0.0
 10
432.3625871666603
 20
274.7019973234316
 30
0.0
 10
432.2171809548109
 20
274.8151188684189
 30
0.0
 10
432.1340520625957
 20
274.8737873265619
 30
0.0
 10
432.048663966711
 20
274.9289914409471
 30
0.0
 10
431.9585113045077
 20
274.9824770825898
 30
0.0
 10
431.863680372235
 20
275.0340871422684
 30
0.0
 10
431.7642129432868
 20
275.0835890551792
 30
0.0
 10
431.6630948727737
 20
275.1296293408492
 30
0.0
 10
431.5580197921829
 20
275.1734079223271
 30
0.0
 10
431.4490680304789
 20
275.2148106518343
 30
0.0
 10
431.3363032498016
 20
275.2536650011623
 30
0.0
 10
431.222427592721
 20
275.2891228822467
 30
0.0
 10
431.1055755739113
 20
275.3218715199731
 30
0.0
 10
430.9858253801577
 20
275.3518461216348
 30
0.0
 10
430.8632467785953
 20
275.3789187030592
 30
0.0
 10
430.7399788481231
 20
275.4026917954356
 30
0.0
 10
430.5449259639985
 20
275.4349020627304
 30
0.0
 10
430.2766904842508
 20
275.4674994834714
 30
0.0
 10
430.0487427452942
 20
275.4758609499373
 30
0.0
 10
429.934768881033
 20
275.480041682979
 30
0.0
 11
432.737370713385
 21
274.214240402813
 31
0.0
 11
432.5472541234823
 21
274.5077894854011
 31
0.0
 11
432.2970493673848
 21
274.7521536833414
 31
0.0
 11
432.2166751054976
 21
274.8145111197381
 31
0.0
 11
432.1336677258887
 21
274.8732153136101
 31
0.0
 11
432.0483246721145
 21
274.9284350971057
 31
0.0
 11
431.9609135780773
 21
274.9803540301397
 31
0.0
 11
431.8633662268745
 21
275.0334861968948
 31
0.0
 11
431.7639430121938
 21
275.083009659116
 31
0.0
 11
431.6628556201289
 21
275.1290772514548
 31
0.0
 11
431.5603225435704
 21
275.1718368569729
 31
0.0
 11
431.4488561662396
 21
275.2142249254134
 31
0.0
 11
431.3361165397782
 21
275.253099436994
 31
0.0
 11
431.222266935926
 21
275.2885773437146
 31
0.0
 11
431.1074480197389
 21
275.3207840550422
 31
0.0
 11
430.9856918187447
 21
275.351277892499
 31
0.0
 11
430.8631339967944
 21
275.3783683548826
 31
0.0
 11
430.7398836967805
 21
275.4021379688592
 31
0.0
 11
430.6160503698246
 21
275.422669939106
 31
0.0
 11
430.2763652589823
 21
275.4627040134193
 31
0.0
 11
429.934768881033
 21
275.480041682979
 31
0.0
  0
LWPOLYLINE
  5
38A
330
1F
100
AcDbEntity
  8
Mittellinie_TC_020513_DIN_
  6
CHAIN
 62
     7
100
AcDbPolyline
 90
        2
 70
     0
 43
0.25
 10
254.359302448852
 20
291.556244840419
 10
254.359302448852
 20
202.746845339165
  0
LWPOLYLINE
  5
38B
330
1F
100
AcDbEntity
  8
Mittellinie_TC_020513_DIN_
  6
CHAIN
 62
     7
100
AcDbPolyline
 90
        2
 70
     0
 43
0.25
 10
189.359302448852
 20
202.84677755993
 10
189.359302448852
 20
216.84677755993
  0
LWPOLYLINE
  5
38C
330
1F
100
AcDbEntity
  8
Mittellinie_TC_020513_DIN_
  6
CHAIN
 62
     7
100
AcDbPolyline
 90
        2
 70
     0
 43
0.25
 10
319.359302448852
 20
202.84677755993
 10
319.359302448852
 20
216.84677755993
  0
LWPOLYLINE
  5
38D
330
1F
100
AcDbEntity
  8
Mittellinie_TC_020513_DIN_
  6
CHAIN
 62
     7
100
AcDbPolyline
 90
        2
 70
     0
 43
0.25
 10
470.891574198461
 20
202.84677755993
 10
470.891574198461
 20
216.84677755993
  0
LWPOLYLINE
  5
38E
330
1F
100
AcDbEntity
  8
Mittellinie_TC_020513_DIN_
  6
CHAIN
 62
     7
100
AcDbPolyline
 90
        2
 70
     0
 43
0.25
 10
425.891574198461
 20
202.84677755993
 10
425.891574198461
 20
216.84677755993
  0
LWPOLYLINE
  5
38F
330
1F
100
AcDbEntity
  8
Mittelpunktmarkierung_TC_020513_DIN_
  6
CHAIN
 62
     7
100
AcDbPolyline
 90
        2
 70
     0
 43
0.25
 10
448.391574198459
 20
292.029203961851
 10
448.391574198459
 20
207.34677755993
  0
LWPOLYLINE
  5
390
330
1F
100
AcDbEntity
  8
Mittelpunktmarkierung_TC_020513_DIN_
  6
CHAIN
 62
     7
100
AcDbPolyline
 90
        2
 70
     0
 43
0.25
 10
473.391574198459
 20
232.34677755993
 10
423.391574198459
 20
232.34677755993
  0
LWPOLYLINE
  5
391
330
1F
100
AcDbEntity
  8
Sichtbare_Kanten_TC_020513_DIN_
  6
Continuous
 62
     7
100
AcDbPolyline
 90
        2
 70
     0
 43
0.5
 10
426.391574198464
 20
282.34677755993
 10
426.391574198464
 20
287.84677755993
  0
LWPOLYLINE
  5
392
330
1F
100
AcDbEntity
  8
Sichtbare_Kanten_TC_020513_DIN_
  6
Continuous
 62
     7
100
AcDbPolyline
 90
        2
 70
     0
 43
0.5
 10
426.391574198464
 20
287.84677755993
 10
432.391574198462
 20
287.84677755993
  0
LWPOLYLINE
  5
393
330
1F
100
AcDbEntity
  8
Sichtbare_Kanten_TC_020513_DIN_
  6
Continuous
 62
     7
100
AcDbPolyline
 90
        2
 70
     0
 43
0.5
 10
464.391574198462
 20
287.84677755993
 10
432.391574198462
 20
287.84677755993
  0
LWPOLYLINE
  5
394
330
1F
100
AcDbEntity
  8
Sichtbare_Kanten_TC_020513_DIN_
  6
Continuous
 62
     7
100
AcDbPolyline
 90
        2
 70
     0
 43
0.5
 10
464.391574198462
 20
287.84677755993
 10
470.391574198464
 20
287.84677755993
  0
LWPOLYLINE
  5
395
330
1F
100
AcDbEntity
  8
Sichtbare_Kanten_TC_020513_DIN_
  6
Continuous
 62
     7
100
AcDbPolyline
 90
        2
 70
     0
 43
0.5
 10
470.391574198464
 20
282.34677755993
 10
470.391574198464
 20
287.84677755993
  0
LWPOLYLINE
  5
396
330
1F
100
AcDbEntity
  8
Sichtbare_Kanten_TC_020513_DIN_
  6
Continuous
 62
     7
100
AcDbPolyline
 90
        2
 70
     0
 43
0.5
 10
426.391574198464
 20
282.34677755993
 10
432.391574198462
 20
282.34677755993
  0
LWPOLYLINE
  5
397
330
1F
100
AcDbEntity
  8
Sichtbare_Kanten_TC_020513_DIN_
  6
Continuous
 62
     7
100
AcDbPolyline
 90
        2
 70
     0
 43
0.5
 10
464.391574198462
 20
282.34677755993
 10
432.391574198462
 20
282.34677755993
  0
LWPOLYLINE
  5
398
330
1F
100
AcDbEntity
  8
Sichtbare_Kanten_TC_020513_DIN_
  6
Continuous
 62
     7
100
AcDbPolyline
 90
        2
 70
     0
 43
0.5
 10
464.391574198462
 20
282.34677755993
 10
470.391574198464
 20
282.34677755993
  0
LWPOLYLINE
  5
399
330
1F
100
AcDbEntity
  8
Sichtbare_Kanten_TC_020513_DIN_
  6
Continuous
 62
     7
100
AcDbPolyline
 90
        2
 70
     0
 43
0.5
 10
472.641574198465
 20
301.786569697109
 10
471.141574198465
 20
301.786569697109
  0
LWPOLYLINE
  5
39A
330
1F
100
AcDbEntity
  8
Sichtbare_Kanten_TC_020513_DIN_
  6
Continuous
 62
     7
100
AcDbPolyline
 90
        2
 70
     0
 43
0.5
 10
476.141574198465
 20
301.786569697109
 10
474.641574198465
 20
301.786569697109
  0
LWPOLYLINE
  5
39B
330
1F
100
AcDbEntity
  8
Sichtbare_Kanten_TC_020513_DIN_
  6
Continuous
 62
     7
100
AcDbPolyline
 90
        2
 70
     0
 43
0.5
 10
422.141574198467
 20
301.52677755993
 10
424.141574198466
 20
301.52677755993
  0
LWPOLYLINE
  5
39C
330
1F
100
AcDbEntity
  8
Sichtbare_Kanten_TC_020513_DIN_
  6
Continuous
 62
     7
100
AcDbPolyline
 90
        2
 70
     0
 43
0.5
 10
420.631574198466
 20
295.02677755993
 10
420.641574198467
 20
295.02677755993
  0
LWPOLYLINE
  5
39D
330
1F
100
AcDbEntity
  8
Sichtbare_Kanten_TC_020513_DIN_
  6
Continuous
 62
     7
100
AcDbPolyline
 90
        2
 70
     0
 43
0.5
 10
420.631574198466
 20
297.02677755993
 10
420.641574198467
 20
297.02677755993
  0
LWPOLYLINE
  5
39E
330
1F
100
AcDbEntity
  8
Sichtbare_Kanten_TC_020513_DIN_
  6
Continuous
 62
     7
100
AcDbPolyline
 90
        2
 70
     0
 43
0.5
 10
425.641574198467
 20
295.02677755993
 10
425.651574198467
 20
295.02677755993
  0
LWPOLYLINE
  5
39F
330
1F
100
AcDbEntity
  8
Sichtbare_Kanten_TC_020513_DIN_
  6
Continuous
 62
     7
100
AcDbPolyline
 90
        2
 70
     0
 43
0.5
 10
425.641574198467
 20
297.02677755993
 10
425.651574198467
 20
297.02677755993
  0
LWPOLYLINE
  5
3A0
330
1F
100
AcDbEntity
  8
Sichtbare_Kanten_TC_020513_DIN_
  6
Continuous
 62
     7
100
AcDbPolyline
 90
        2
 70
     0
 43
0.5
 10
422.141574198465
 20
301.786569697109
 10
420.641574198465
 20
301.786569697109
  0
LWPOLYLINE
  5
3A1
330
1F
100
AcDbEntity
  8
Sichtbare_Kanten_TC_020513_DIN_
  6
Continuous
 62
     7
100
AcDbPolyline
 90
        2
 70
     0
 43
0.5
 10
425.641574198465
 20
301.786569697109
 10
424.141574198465
 20
301.786569697109
  0
LWPOLYLINE
  5
3A2
330
1F
100
AcDbEntity
  8
Sichtbare_Kanten_TC_020513_DIN_
  6
Continuous
 62
     7
100
AcDbPolyline
 90
        2
 70
     0
 43
0.5
 10
471.131574198467
 20
295.02677755993
 10
471.141574198467
 20
295.02677755993
  0
LWPOLYLINE
  5
3A3
330
1F
100
AcDbEntity
  8
Sichtbare_Kanten_TC_020513_DIN_
  6
Continuous
 62
     7
100
AcDbPolyline
 90
        2
 70
     0
 43
0.5
 10
471.131574198467
 20
297.02677755993
 10
471.141574198467
 20
297.02677755993
  0
LWPOLYLINE
  5
3A4
330
1F
100
AcDbEntity
  8
Sichtbare_Kanten_TC_020513_DIN_
  6
Continuous
 62
     7
100
AcDbPolyline
 90
        2
 70
     0
 43
0.5
 10
476.141574198467
 20
295.02677755993
 10
476.151574198466
 20
295.02677755993
  0
LWPOLYLINE
  5
3A5
330
1F
100
AcDbEntity
  8
Sichtbare_Kanten_TC_020513_DIN_
  6
Continuous
 62
     7
100
AcDbPolyline
 90
        2
 70
     0
 43
0.5
 10
476.141574198467
 20
297.02677755993
 10
476.151574198466
 20
297.02677755993
  0
LWPOLYLINE
  5
3A6
330
1F
100
AcDbEntity
  8
Sichtbare_Kanten_TC_020513_DIN_
  6
Continuous
 62
     7
100
AcDbPolyline
 90
        2
 70
     0
 43
0.5
 10
472.641574198467
 20
301.52677755993
 10
474.641574198467
 20
301.52677755993
  0
LWPOLYLINE
  5
3A7
330
1F
100
AcDbEntity
  8
Sichtbare_Kanten_TC_020513_DIN_
  6
Continuous
 62
     7
100
AcDbPolyline
 90
        2
 70
     0
 43
0.5
 10
472.641574198459
 20
267.033069060945
 10
474.641574198459
 20
267.033069060945
  0
LWPOLYLINE
  5
3A8
330
1F
100
AcDbEntity
  8
Sichtbare_Kanten_TC_020513_DIN_
  6
Continuous
 62
     7
100
AcDbPolyline
 90
        2
 70
     0
 43
0.5
 10
474.641574198459
 20
267.033069060945
 10
474.641574198456
 20
274.104136872811
  0
LWPOLYLINE
  5
3A9
330
1F
100
AcDbEntity
  8
Sichtbare_Kanten_TC_020513_DIN_
  6
Continuous
 62
     7
100
AcDbPolyline
 90
        2
 70
     0
 43
0.5
 10
472.641574198462
 20
296.15359525184
 10
472.641574198463
 20
298.32254412845
  0
LWPOLYLINE
  5
3AA
330
1F
100
AcDbEntity
  8
Sichtbare_Kanten_TC_020513_DIN_
  6
Continuous
 62
     7
100
AcDbPolyline
 90
        2
 70
     0
 43
0.5
 10
472.641574198463
 20
298.32254412845
 10
472.641574198465
 20
301.786569697109
  0
LWPOLYLINE
  5
3AB
330
1F
100
AcDbEntity
  8
Sichtbare_Kanten_TC_020513_DIN_
  6
Continuous
 62
     7
100
AcDbPolyline
 90
        2
 70
     0
 43
0.5
 10
474.641574198463
 20
298.32254412845
 10
474.641574198465
 20
301.786569697109
  0
LWPOLYLINE
  5
3AC
330
1F
100
AcDbEntity
  8
Sichtbare_Kanten_TC_020513_DIN_
  6
Continuous
 62
     7
100
AcDbPolyline
 90
        2
 70
     0
 43
0.5
 10
474.641574198462
 20
296.15359525184
 10
474.641574198463
 20
298.32254412845
  0
LWPOLYLINE
  5
3AD
330
1F
100
AcDbEntity
  8
Sichtbare_Kanten_TC_020513_DIN_
  6
Continuous
 62
     7
100
AcDbPolyline
 90
        2
 70
     0
 43
0.5
 10
477.391574198469
 20
274.69677755993
 10
477.391574198469
 20
281.99677755993
  0
LWPOLYLINE
  5
3AE
330
1F
100
AcDbEntity
  8
Sichtbare_Kanten_TC_020513_DIN_
  6
Continuous
 62
     7
100
AcDbPolyline
 90
        2
 70
     0
 43
0.5
 10
420.431574198466
 20
294.97677755993
 10
420.431574198466
 20
297.07677755993
  0
LWPOLYLINE
  5
3AF
330
1F
100
AcDbEntity
  8
Sichtbare_Kanten_TC_020513_DIN_
  6
Continuous
 62
     7
100
AcDbPolyline
 90
        2
 70
     0
 43
0.5
 10
425.851574198466
 20
294.97677755993
 10
425.851574198466
 20
297.07677755993
  0
LWPOLYLINE
  5
3B0
330
1F
100
AcDbEntity
  8
Sichtbare_Kanten_TC_020513_DIN_
  6
Continuous
 62
     7
100
AcDbPolyline
 90
        2
 70
     0
 43
0.5
 10
425.651574198467
 20
294.77677755993
 10
425.651574198467
 20
297.27677755993
  0
LWPOLYLINE
  5
3B1
330
1F
100
AcDbEntity
  8
Sichtbare_Kanten_TC_020513_DIN_
  6
Continuous
 62
     7
100
AcDbPolyline
 90
        2
 70
     0
 43
0.5
 10
420.631574198466
 20
294.77677755993
 10
420.631574198466
 20
297.27677755993
  0
LWPOLYLINE
  5
3B2
330
1F
100
AcDbEntity
  8
Sichtbare_Kanten_TC_020513_DIN_
  6
Continuous
 62
     7
100
AcDbPolyline
 90
        2
 70
     0
 43
0.5
 10
419.391574198469
 20
274.69677755993
 10
419.391574198469
 20
281.99677755993
  0
LWPOLYLINE
  5
3B3
330
1F
100
AcDbEntity
  8
Sichtbare_Kanten_TC_020513_DIN_
  6
Continuous
 62
     7
100
AcDbPolyline
 90
        2
 70
     0
 43
0.5
 10
420.641574198461
 20
282.590991122303
 10
420.641574198463
 20
298.32254412845
  0
LWPOLYLINE
  5
3B4
330
1F
100
AcDbEntity
  8
Sichtbare_Kanten_TC_020513_DIN_
  6
Continuous
 62
     7
100
AcDbPolyline
 90
        2
 70
     0
 43
0.5
 10
422.141574198462
 20
296.15359525184
 10
422.141574198463
 20
298.32254412845
  0
LWPOLYLINE
  5
3B5
330
1F
100
AcDbEntity
  8
Sichtbare_Kanten_TC_020513_DIN_
  6
Continuous
 62
     7
100
AcDbPolyline
 90
        2
 70
     0
 43
0.5
 10
422.141574198463
 20
298.32254412845
 10
422.141574198465
 20
301.786569697109
  0
LWPOLYLINE
  5
3B6
330
1F
100
AcDbEntity
  8
Sichtbare_Kanten_TC_020513_DIN_
  6
Continuous
 62
     7
100
AcDbPolyline
 90
        2
 70
     0
 43
0.5
 10
420.641574198463
 20
298.32254412845
 10
420.641574198465
 20
301.786569697109
  0
LWPOLYLINE
  5
3B7
330
1F
100
AcDbEntity
  8
Sichtbare_Kanten_TC_020513_DIN_
  6
Continuous
 62
     7
100
AcDbPolyline
 90
        2
 70
     0
 43
0.5
 10
424.141574198462
 20
296.15359525184
 10
424.141574198463
 20
298.32254412845
  0
LWPOLYLINE
  5
3B8
330
1F
100
AcDbEntity
  8
Sichtbare_Kanten_TC_020513_DIN_
  6
Continuous
 62
     7
100
AcDbPolyline
 90
        2
 70
     0
 43
0.5
 10
425.641574198458
 20
282.590991122303
 10
425.641574198463
 20
298.32254412845
  0
LWPOLYLINE
  5
3B9
330
1F
100
AcDbEntity
  8
Sichtbare_Kanten_TC_020513_DIN_
  6
Continuous
 62
     7
100
AcDbPolyline
 90
        2
 70
     0
 43
0.5
 10
424.141574198463
 20
298.32254412845
 10
424.141574198465
 20
301.786569697109
  0
LWPOLYLINE
  5
3BA
330
1F
100
AcDbEntity
  8
Sichtbare_Kanten_TC_020513_DIN_
  6
Continuous
 62
     7
100
AcDbPolyline
 90
        2
 70
     0
 43
0.5
 10
425.641574198463
 20
298.32254412845
 10
425.641574198465
 20
301.786569697109
  0
LWPOLYLINE
  5
3BB
330
1F
100
AcDbEntity
  8
Sichtbare_Kanten_TC_020513_DIN_
  6
Continuous
 62
     7
100
AcDbPolyline
 90
        2
 70
     0
 43
0.5
 10
424.141574198463
 20
298.227700981716
 10
422.141574198463
 20
298.227700981716
  0
LWPOLYLINE
  5
3BC
330
1F
100
AcDbEntity
  8
Sichtbare_Kanten_TC_020513_DIN_
  6
Continuous
 62
     7
100
AcDbPolyline
 90
        2
 70
     0
 43
0.5
 10
424.141574198458
 20
267.033069060945
 10
422.141574198459
 20
267.033069060945
  0
LWPOLYLINE
  5
3BD
330
1F
100
AcDbEntity
  8
Sichtbare_Kanten_TC_020513_DIN_
  6
Continuous
 62
     7
100
AcDbPolyline
 90
        2
 70
     0
 43
0.5
 10
424.141574198462
 20
296.15359525184
 10
424.141574198458
 20
282.590991122303
  0
LWPOLYLINE
  5
3BE
330
1F
100
AcDbEntity
  8
Sichtbare_Kanten_TC_020513_DIN_
  6
Continuous
 62
     7
100
AcDbPolyline
 90
        2
 70
     0
 43
0.5
 10
471.141574198463
 20
298.32254412845
 10
471.141574198465
 20
301.786569697109
  0
LWPOLYLINE
  5
3BF
330
1F
100
AcDbEntity
  8
Sichtbare_Kanten_TC_020513_DIN_
  6
Continuous
 62
     7
100
AcDbPolyline
 90
        2
 70
     0
 43
0.5
 10
471.141574198458
 20
282.590991122303
 10
471.141574198463
 20
298.32254412845
  0
LWPOLYLINE
  5
3C0
330
1F
100
AcDbEntity
  8
Sichtbare_Kanten_TC_020513_DIN_
  6
Continuous
 62
     7
100
AcDbPolyline
 90
        2
 70
     0
 43
0.5
 10
476.141574198463
 20
298.32254412845
 10
476.141574198465
 20
301.786569697109
  0
LWPOLYLINE
  5
3C1
330
1F
100
AcDbEntity
  8
Sichtbare_Kanten_TC_020513_DIN_
  6
Continuous
 62
     7
100
AcDbPolyline
 90
        2
 70
     0
 43
0.5
 10
476.141574198461
 20
282.590991122303
 10
476.141574198463
 20
298.32254412845
  0
LWPOLYLINE
  5
3C2
330
1F
100
AcDbEntity
  8
Sichtbare_Kanten_TC_020513_DIN_
  6
Continuous
 62
     7
100
AcDbPolyline
 90
        2
 70
     0
 43
0.5
 10
471.131574198467
 20
294.77677755993
 10
471.131574198467
 20
297.27677755993
  0
LWPOLYLINE
  5
3C3
330
1F
100
AcDbEntity
  8
Sichtbare_Kanten_TC_020513_DIN_
  6
Continuous
 62
     7
100
AcDbPolyline
 90
        2
 70
     0
 43
0.5
 10
470.931574198466
 20
294.97677755993
 10
470.931574198466
 20
297.07677755993
  0
LWPOLYLINE
  5
3C4
330
1F
100
AcDbEntity
  8
Sichtbare_Kanten_TC_020513_DIN_
  6
Continuous
 62
     7
100
AcDbPolyline
 90
        2
 70
     0
 43
0.5
 10
476.151574198466
 20
294.77677755993
 10
476.151574198466
 20
297.27677755993
  0
LWPOLYLINE
  5
3C5
330
1F
100
AcDbEntity
  8
Sichtbare_Kanten_TC_020513_DIN_
  6
Continuous
 62
     7
100
AcDbPolyline
 90
        2
 70
     0
 43
0.5
 10
476.351574198466
 20
294.97677755993
 10
476.351574198466
 20
297.07677755993
  0
LWPOLYLINE
  5
3C6
330
1F
100
AcDbEntity
  8
Sichtbare_Kanten_TC_020513_DIN_
  6
Continuous
 62
     7
100
AcDbPolyline
 90
        2
 70
     0
 43
0.5
 10
472.641574198463
 20
298.227700981716
 10
474.641574198463
 20
298.227700981716
  0
LWPOLYLINE
  5
3C7
330
1F
100
AcDbEntity
  8
Sichtbare_Kanten_TC_020513_DIN_
  6
Continuous
 62
     7
100
AcDbPolyline
 90
        2
 70
     0
 43
0.5
 10
474.641574198458
 20
282.590991122303
 10
474.641574198462
 20
296.15359525184
  0
LWPOLYLINE
  5
3C8
330
1F
100
AcDbEntity
  8
Sichtbare_Kanten_TC_020513_DIN_
  6
Continuous
 62
     7
100
AcDbPolyline
 90
        2
 70
     0
 43
0.5
 10
472.641574198456
 20
274.104136872811
 10
472.641574198459
 20
267.033069060945
  0
LWPOLYLINE
  5
3C9
330
1F
100
AcDbEntity
  8
Sichtbare_Kanten_TC_020513_DIN_
  6
Continuous
 62
     7
100
AcDbPolyline
 90
        2
 70
     0
 43
0.5
 10
472.641574198462
 20
296.15359525184
 10
472.641574198458
 20
282.590991122303
  0
LWPOLYLINE
  5
3CA
330
1F
100
AcDbEntity
  8
Sichtbare_Kanten_TC_020513_DIN_
  6
Continuous
 62
     7
100
AcDbPolyline
 90
        2
 70
     0
 43
0.5
 10
474.641574198456
 20
274.104136872811
 10
474.641574198456
 20
274.105486058915
  0
LWPOLYLINE
  5
3CB
330
1F
100
AcDbEntity
  8
Sichtbare_Kanten_TC_020513_DIN_
  6
Continuous
 62
     7
100
AcDbPolyline
 90
        2
 70
     0
 43
0.5
 10
472.641574198456
 20
274.104136872811
 10
474.641574198456
 20
274.104136872811
  0
LWPOLYLINE
  5
3CC
330
1F
100
AcDbEntity
  8
Sichtbare_Kanten_TC_020513_DIN_
  6
Continuous
 62
     7
100
AcDbPolyline
 90
        2
 70
     0
 43
0.5
 10
472.641574198456
 20
274.105486058915
 10
472.641574198456
 20
274.104136872811
  0
LWPOLYLINE
  5
3CD
330
1F
100
AcDbEntity
  8
Sichtbare_Kanten_TC_020513_DIN_
  6
Continuous
 62
     7
100
AcDbPolyline
 90
        2
 70
     0
 43
0.5
 10
422.141574198458
 20
282.590991122303
 10
422.141574198462
 20
296.15359525184
  0
LWPOLYLINE
  5
3CE
330
1F
100
AcDbEntity
  8
Sichtbare_Kanten_TC_020513_DIN_
  6
Continuous
 62
     7
100
AcDbPolyline
 90
        2
 70
     0
 43
0.5
 10
422.141574198459
 20
267.033069060945
 10
422.141574198456
 20
274.104136872811
  0
LWPOLYLINE
  5
3CF
330
1F
100
AcDbEntity
  8
Sichtbare_Kanten_TC_020513_DIN_
  6
Continuous
 62
     7
100
AcDbPolyline
 90
        2
 70
     0
 43
0.5
 10
424.141574198456
 20
274.104136872811
 10
422.141574198456
 20
274.104136872811
  0
LWPOLYLINE
  5
3D0
330
1F
100
AcDbEntity
  8
Sichtbare_Kanten_TC_020513_DIN_
  6
Continuous
 62
     7
100
AcDbPolyline
 90
        2
 70
     0
 43
0.5
 10
422.141574198456
 20
274.104136872811
 10
422.141574198456
 20
274.105486058915
  0
LWPOLYLINE
  5
3D1
330
1F
100
AcDbEntity
  8
Sichtbare_Kanten_TC_020513_DIN_
  6
Continuous
 62
     7
100
AcDbPolyline
 90
        2
 70
     0
 43
0.5
 10
424.141574198456
 20
274.104136872811
 10
424.141574198458
 20
267.033069060945
  0
LWPOLYLINE
  5
3D2
330
1F
100
AcDbEntity
  8
Sichtbare_Kanten_TC_020513_DIN_
  6
Continuous
 62
     7
100
AcDbPolyline
 90
        2
 70
     0
 43
0.5
 10
424.141574198456
 20
274.105486058915
 10
424.141574198456
 20
274.104136872811
  0
LWPOLYLINE
  5
3D3
330
1F
100
AcDbEntity
  8
Sichtbare_Kanten_TC_020513_DIN_
  6
Continuous
 62
     7
100
AcDbPolyline
 90
        2
 70
     0
 43
0.5
 10
463.98474747241
 20
271.775021031868
 10
462.201997579061
 20
267.984900325055
  0
LWPOLYLINE
  5
3D4
330
1F
100
AcDbEntity
  8
Sichtbare_Kanten_TC_020513_DIN_
  6
Continuous
 62
     7
100
AcDbPolyline
 90
        2
 70
     0
 43
0.5
 10
459.360200485837
 20
266.576289435507
 10
437.422947911071
 20
266.576289435507
  0
LWPOLYLINE
  5
3D5
330
1F
100
AcDbEntity
  8
Sichtbare_Kanten_TC_020513_DIN_
  6
Continuous
 62
     7
100
AcDbPolyline
 90
        2
 70
     0
 43
0.5
 10
434.581150817848
 20
267.984900325055
 10
432.798400924502
 20
271.775021031868
  0
LWPOLYLINE
  5
3D6
330
1F
100
AcDbEntity
  8
Sichtbare_Kanten_TC_020513_DIN_
  6
Continuous
 62
     7
100
AcDbPolyline
 90
        2
 70
     0
 43
0.5
 10
433.641574198456
 20
275.480041682979
 10
433.641574198456
 20
275.519923310437
  0
LWPOLYLINE
  5
3D7
330
1F
100
AcDbEntity
  8
Sichtbare_Kanten_TC_020513_DIN_
  6
Continuous
 62
     7
100
AcDbPolyline
 90
        2
 70
     0
 43
0.5
 10
433.641574198459
 20
265.621214811453
 10
463.141574198459
 20
265.621214811453
  0
LWPOLYLINE
  5
3D8
330
1F
100
AcDbEntity
  8
Sichtbare_Kanten_TC_020513_DIN_
  6
Continuous
 62
     7
100
AcDbPolyline
 90
        2
 70
     0
 43
0.5
 10
463.141574198456
 20
275.480041682979
 10
463.141574198456
 20
275.519923310437
  0
LWPOLYLINE
  5
3D9
330
1F
100
AcDbEntity
  8
Sichtbare_Kanten_TC_020513_DIN_
  6
Continuous
 62
     7
100
AcDbPolyline
 90
        2
 70
     0
 43
0.5
 10
474.641574198456
 20
274.105486058915
 10
472.641574198456
 20
274.105486058915
  0
LWPOLYLINE
  5
3DA
330
1F
100
AcDbEntity
  8
Sichtbare_Kanten_TC_020513_DIN_
  6
Continuous
 62
     7
100
AcDbPolyline
 90
        2
 70
     0
 43
0.5
 10
477.141574198456
 20
275.519923310437
 10
477.141574198459
 20
265.620428373826
  0
LWPOLYLINE
  5
3DB
330
1F
100
AcDbEntity
  8
Sichtbare_Kanten_TC_020513_DIN_
  6
Continuous
 62
     7
100
AcDbPolyline
 90
        2
 70
     0
 43
0.5
 10
477.141574198459
 20
265.620428373826
 10
463.141574198459
 20
265.620428373826
  0
LWPOLYLINE
  5
3DC
330
1F
100
AcDbEntity
  8
Sichtbare_Kanten_TC_020513_DIN_
  6
Continuous
 62
     7
100
AcDbPolyline
 90
        2
 70
     0
 43
0.5
 10
463.141574198459
 20
265.620428373826
 10
463.141574198458
 20
269.982437284159
  0
LWPOLYLINE
  5
3DD
330
1F
100
AcDbEntity
  8
Sichtbare_Kanten_TC_020513_DIN_
  6
Continuous
 62
     7
100
AcDbPolyline
 90
        2
 70
     0
 43
0.5
 10
419.641574198456
 20
275.519923310437
 10
419.641574198458
 20
282.590991122303
  0
LWPOLYLINE
  5
3DE
330
1F
100
AcDbEntity
  8
Sichtbare_Kanten_TC_020513_DIN_
  6
Continuous
 62
     7
100
AcDbPolyline
 90
        2
 70
     0
 43
0.5
 10
419.641574198458
 20
282.590991122303
 10
425.641574198458
 20
282.590991122303
  0
LWPOLYLINE
  5
3DF
330
1F
100
AcDbEntity
  8
Sichtbare_Kanten_TC_020513_DIN_
  6
Continuous
 62
     7
100
AcDbPolyline
 90
        2
 70
     0
 43
0.5
 10
425.641574198458
 20
282.590991122303
 10
431.641574198457
 20
278.348350435184
  0
LWPOLYLINE
  5
3E0
330
1F
100
AcDbEntity
  8
Sichtbare_Kanten_TC_020513_DIN_
  6
Continuous
 62
     7
100
AcDbPolyline
 90
        2
 70
     0
 43
0.5
 10
431.641574198457
 20
278.348350435184
 10
433.641574198457
 20
278.348350435184
  0
LWPOLYLINE
  5
3E1
330
1F
100
AcDbEntity
  8
Sichtbare_Kanten_TC_020513_DIN_
  6
Continuous
 62
     7
100
AcDbPolyline
 90
        2
 70
     0
 43
0.5
 10
433.641574198457
 20
278.348350435184
 10
433.641574198457
 20
278.349136872811
  0
LWPOLYLINE
  5
3E2
330
1F
100
AcDbEntity
  8
Sichtbare_Kanten_TC_020513_DIN_
  6
Continuous
 62
     7
100
AcDbPolyline
 90
        2
 70
     0
 43
0.5
 10
463.141574198457
 20
278.349136872811
 10
433.641574198457
 20
278.349136872811
  0
LWPOLYLINE
  5
3E3
330
1F
100
AcDbEntity
  8
Sichtbare_Kanten_TC_020513_DIN_
  6
Continuous
 62
     7
100
AcDbPolyline
 90
        2
 70
     0
 43
0.5
 10
463.141574198457
 20
278.349136872811
 10
463.141574198457
 20
278.348350435184
  0
LWPOLYLINE
  5
3E4
330
1F
100
AcDbEntity
  8
Sichtbare_Kanten_TC_020513_DIN_
  6
Continuous
 62
     7
100
AcDbPolyline
 90
        2
 70
     0
 43
0.5
 10
465.141574198457
 20
278.348350435184
 10
463.141574198457
 20
278.348350435184
  0
LWPOLYLINE
  5
3E5
330
1F
100
AcDbEntity
  8
Sichtbare_Kanten_TC_020513_DIN_
  6
Continuous
 62
     7
100
AcDbPolyline
 90
        2
 70
     0
 43
0.5
 10
471.141574198458
 20
282.590991122303
 10
465.141574198457
 20
278.348350435184
  0
LWPOLYLINE
  5
3E6
330
1F
100
AcDbEntity
  8
Sichtbare_Kanten_TC_020513_DIN_
  6
Continuous
 62
     7
100
AcDbPolyline
 90
        2
 70
     0
 43
0.5
 10
477.141574198458
 20
282.590991122303
 10
471.141574198458
 20
282.590991122303
  0
LWPOLYLINE
  5
3E7
330
1F
100
AcDbEntity
  8
Sichtbare_Kanten_TC_020513_DIN_
  6
Continuous
 62
     7
100
AcDbPolyline
 90
        2
 70
     0
 43
0.5
 10
477.141574198456
 20
275.519923310437
 10
477.141574198458
 20
282.590991122303
  0
LWPOLYLINE
  5
3E8
330
1F
100
AcDbEntity
  8
Sichtbare_Kanten_TC_020513_DIN_
  6
Continuous
 62
     7
100
AcDbPolyline
 90
        2
 70
     0
 43
0.5
 10
471.141574198456
 20
275.519923310437
 10
477.141574198456
 20
275.519923310437
  0
LWPOLYLINE
  5
3E9
330
1F
100
AcDbEntity
  8
Sichtbare_Kanten_TC_020513_DIN_
  6
Continuous
 62
     7
100
AcDbPolyline
 90
        2
 70
     0
 43
0.5
 10
466.848379515882
 20
275.519923310438
 10
463.141574198456
 20
275.519923310437
  0
LWPOLYLINE
  5
3EA
330
1F
100
AcDbEntity
  8
Sichtbare_Kanten_TC_020513_DIN_
  6
Continuous
 62
     7
100
AcDbPolyline
 90
        2
 70
     0
 43
0.5
 10
463.141574198456
 20
275.520709748064
 10
463.141574198456
 20
275.519923310437
  0
LWPOLYLINE
  5
3EB
330
1F
100
AcDbEntity
  8
Sichtbare_Kanten_TC_020513_DIN_
  6
Continuous
 62
     7
100
AcDbPolyline
 90
        2
 70
     0
 43
0.5
 10
463.141574198456
 20
275.520709748064
 10
433.641574198456
 20
275.520709748064
  0
LWPOLYLINE
  5
3EC
330
1F
100
AcDbEntity
  8
Sichtbare_Kanten_TC_020513_DIN_
  6
Continuous
 62
     7
100
AcDbPolyline
 90
        2
 70
     0
 43
0.5
 10
433.641574198456
 20
275.520709748064
 10
433.641574198456
 20
275.519923310437
  0
LWPOLYLINE
  5
3ED
330
1F
100
AcDbEntity
  8
Sichtbare_Kanten_TC_020513_DIN_
  6
Continuous
 62
     7
100
AcDbPolyline
 90
        2
 70
     0
 43
0.5
 10
433.641574198456
 20
275.519923310437
 10
429.934768881032
 20
275.519923310437
  0
LWPOLYLINE
  5
3EE
330
1F
100
AcDbEntity
  8
Sichtbare_Kanten_TC_020513_DIN_
  6
Continuous
 62
     7
100
AcDbPolyline
 90
        2
 70
     0
 43
0.5
 10
471.141574198456
 20
275.519923310437
 10
471.141574198457
 20
270.570175842132
  0
LWPOLYLINE
  5
3EF
330
1F
100
AcDbEntity
  8
Sichtbare_Kanten_TC_020513_DIN_
  6
Continuous
 62
     7
100
AcDbPolyline
 90
        2
 70
     0
 43
0.5
 10
471.141574198456
 20
275.520991122303
 10
471.141574198456
 20
275.519923310437
  0
LWPOLYLINE
  5
3F0
330
1F
100
AcDbEntity
  8
Sichtbare_Kanten_TC_020513_DIN_
  6
Continuous
 62
     7
100
AcDbPolyline
 90
        2
 70
     0
 43
0.5
 10
425.641574198456
 20
275.520991122303
 10
429.839593234519
 20
275.520991122303
  0
LWPOLYLINE
  5
3F1
330
1F
100
AcDbEntity
  8
Sichtbare_Kanten_TC_020513_DIN_
  6
Continuous
 62
     7
100
AcDbPolyline
 90
        2
 70
     0
 43
0.5
 10
425.641574198456
 20
275.519923310437
 10
425.641574198456
 20
275.520991122303
  0
LWPOLYLINE
  5
3F2
330
1F
100
AcDbEntity
  8
Sichtbare_Kanten_TC_020513_DIN_
  6
Continuous
 62
     7
100
AcDbPolyline
 90
        2
 70
     0
 43
0.5
 10
425.641574198457
 20
270.571243653997
 10
429.83959323452
 20
270.571243653997
  0
LWPOLYLINE
  5
3F3
330
1F
100
AcDbEntity
  8
Sichtbare_Kanten_TC_020513_DIN_
  6
Continuous
 62
     7
100
AcDbPolyline
 90
        2
 70
     0
 43
0.5
 10
429.934768881033
 20
275.480041682979
 10
433.641574198456
 20
275.480041682979
  0
LWPOLYLINE
  5
3F4
330
1F
100
AcDbEntity
  8
Sichtbare_Kanten_TC_020513_DIN_
  6
Continuous
 62
     7
100
AcDbPolyline
 90
        2
 70
     0
 43
0.5
 10
433.641574198456
 20
275.480675252617
 10
463.141574198456
 20
275.480675252617
  0
LWPOLYLINE
  5
3F5
330
1F
100
AcDbEntity
  8
Sichtbare_Kanten_TC_020513_DIN_
  6
Continuous
 62
     7
100
AcDbPolyline
 90
        2
 70
     0
 43
0.5
 10
466.84837951588
 20
275.480041682979
 10
463.141574198456
 20
275.480041682979
  0
LWPOLYLINE
  5
3F6
330
1F
100
AcDbEntity
  8
Sichtbare_Kanten_TC_020513_DIN_
  6
Continuous
 62
     7
100
AcDbPolyline
 90
        2
 70
     0
 43
0.5
 10
462.418934051572
 20
270.755575920926
 10
464.045777683525
 20
274.214240402812
  0
LWPOLYLINE
  5
3F7
330
1F
100
AcDbEntity
  8
Sichtbare_Kanten_TC_020513_DIN_
  6
Continuous
 62
     7
100
AcDbPolyline
 90
        2
 70
     0
 43
0.5
 10
459.513581834497
 20
269.504209249702
 10
437.269566562411
 20
269.504209249701
  0
LWPOLYLINE
  5
3F8
330
1F
100
AcDbEntity
  8
Sichtbare_Kanten_TC_020513_DIN_
  6
Continuous
 62
     7
100
AcDbPolyline
 90
        2
 70
     0
 43
0.5
 10
471.141574198457
 20
270.570175842132
 10
466.848379515882
 20
270.570175842132
  0
LWPOLYLINE
  5
3F9
330
1F
100
AcDbEntity
  8
Sichtbare_Kanten_TC_020513_DIN_
  6
Continuous
 62
     7
100
AcDbPolyline
 90
        2
 70
     0
 43
0.5
 10
466.943555162395
 20
275.520991122303
 10
471.141574198456
 20
275.520991122303
  0
LWPOLYLINE
  5
3FA
330
1F
100
AcDbEntity
  8
Sichtbare_Kanten_TC_020513_DIN_
  6
Continuous
 62
     7
100
AcDbPolyline
 90
        2
 70
     0
 43
0.5
 10
471.141574198457
 20
270.571243653997
 10
466.943555162395
 20
270.571243653997
  0
LWPOLYLINE
  5
3FB
330
1F
100
AcDbEntity
  8
Sichtbare_Kanten_TC_020513_DIN_
  6
Continuous
 62
     7
100
AcDbPolyline
 90
        2
 70
     0
 43
0.5
 10
466.84837951588
 20
275.480041682979
 10
466.848379515882
 20
275.519923310438
  0
LWPOLYLINE
  5
3FC
330
1F
100
AcDbEntity
  8
Sichtbare_Kanten_TC_020513_DIN_
  6
Continuous
 62
     7
100
AcDbPolyline
 90
        2
 70
     0
 43
0.5
 10
466.848379515881
 20
272.072460532262
 10
466.848379515882
 20
270.570175842132
  0
LWPOLYLINE
  5
3FD
330
1F
100
AcDbEntity
  8
Sichtbare_Kanten_TC_020513_DIN_
  6
Continuous
 62
     7
100
AcDbPolyline
 90
        2
 70
     0
 43
0.5
 10
424.141574198456
 20
274.105486058915
 10
422.141574198456
 20
274.105486058915
  0
LWPOLYLINE
  5
3FE
330
1F
100
AcDbEntity
  8
Sichtbare_Kanten_TC_020513_DIN_
  6
Continuous
 62
     7
100
AcDbPolyline
 90
        2
 70
     0
 43
0.5
 10
419.641574198459
 20
265.620428373826
 10
433.641574198459
 20
265.620428373826
  0
LWPOLYLINE
  5
3FF
330
1F
100
AcDbEntity
  8
Sichtbare_Kanten_TC_020513_DIN_
  6
Continuous
 62
     7
100
AcDbPolyline
 90
        2
 70
     0
 43
0.5
 10
419.641574198456
 20
275.519923310437
 10
419.641574198459
 20
265.620428373826
  0
LWPOLYLINE
  5
400
330
1F
100
AcDbEntity
  8
Sichtbare_Kanten_TC_020513_DIN_
  6
Continuous
 62
     7
100
AcDbPolyline
 90
        2
 70
     0
 43
0.5
 10
425.641574198456
 20
275.519923310437
 10
419.641574198456
 20
275.519923310437
  0
LWPOLYLINE
  5
401
330
1F
100
AcDbEntity
  8
Sichtbare_Kanten_TC_020513_DIN_
  6
Continuous
 62
     7
100
AcDbPolyline
 90
        2
 70
     0
 43
0.5
 10
425.641574198457
 20
270.570175842132
 10
425.641574198456
 20
275.519923310437
  0
LWPOLYLINE
  5
402
330
1F
100
AcDbEntity
  8
Sichtbare_Kanten_TC_020513_DIN_
  6
Continuous
 62
     7
100
AcDbPolyline
 90
        2
 70
     0
 43
0.5
 10
429.934768881033
 20
270.570175842132
 10
425.641574198457
 20
270.570175842132
  0
LWPOLYLINE
  5
403
330
1F
100
AcDbEntity
  8
Sichtbare_Kanten_TC_020513_DIN_
  6
Continuous
 62
     7
100
AcDbPolyline
 90
        2
 70
     0
 43
0.5
 10
433.641574198459
 20
265.620428373826
 10
433.641574198457
 20
269.982437284159
  0
LWPOLYLINE
  5
404
330
1F
100
AcDbEntity
  8
Sichtbare_Kanten_TC_020513_DIN_
  6
Continuous
 62
     7
100
AcDbPolyline
 90
        2
 70
     0
 43
0.5
 10
466.798739614086
 20
272.048969275854
 10
464.192999701416
 20
272.048969275854
  0
LWPOLYLINE
  5
405
330
1F
100
AcDbEntity
  8
Sichtbare_Kanten_TC_020513_DIN_
  6
Continuous
 62
     7
100
AcDbPolyline
 90
        2
 70
     0
 43
0.5
 10
432.59039766176
 20
272.048969284212
 10
429.9844087766
 20
272.048969275049
  0
LWPOLYLINE
  5
406
330
1F
100
AcDbEntity
  8
Sichtbare_Kanten_TC_020513_DIN_
  6
Continuous
 62
     7
100
AcDbPolyline
 90
        2
 70
     0
 43
0.5
 10
432.737370713385
 20
274.214240402813
 10
434.364214345337
 20
270.755575920924
  0
LWPOLYLINE
  5
407
330
1F
100
AcDbEntity
  8
Sichtbare_Kanten_TC_020513_DIN_
  6
Continuous
 62
     7
100
AcDbPolyline
 90
        2
 70
     0
 43
0.5
 10
429.934768881033
 20
275.480041682979
 10
429.934768881032
 20
275.519923310437
  0
LWPOLYLINE
  5
408
330
1F
100
AcDbEntity
  8
Sichtbare_Kanten_TC_020513_DIN_
  6
Continuous
 62
     7
100
AcDbPolyline
 90
        2
 70
     0
 43
0.5
 10
429.934768881033
 20
272.072460532262
 10
429.934768881033
 20
270.570175842132
  0
LWPOLYLINE
  5
409
330
1F
100
AcDbEntity
  8
Sichtbare_Kanten_TC_020513_DIN_
  6
Continuous
 62
     7
100
AcDbPolyline
 90
        2
 70
     0
 43
0.5
 10
420.891574198459
 20
211.84677755993
 10
441.124353271584
 20
211.84677755993
  0
LWPOLYLINE
  5
40A
330
1F
100
AcDbEntity
  8
Sichtbare_Kanten_TC_020513_DIN_
  6
Continuous
 62
     7
100
AcDbPolyline
 90
        2
 70
     0
 43
0.5
 10
475.891574198458
 20
211.84677755993
 10
455.658795125333
 20
211.84677755993
  0
LWPOLYLINE
  5
40B
330
1F
100
AcDbEntity
  8
Sichtbare_Kanten_TC_020513_DIN_
  6
Continuous
 62
     7
100
AcDbPolyline
 90
        2
 70
     0
 43
0.5
 10
420.891574198459
 20
207.84677755993
 10
475.891574198459
 20
207.84677755993
  0
LWPOLYLINE
  5
40C
330
1F
100
AcDbEntity
  8
Sichtbare_Kanten_TC_020513_DIN_
  6
Continuous
 62
     7
100
AcDbPolyline
 90
        2
 70
     0
 43
0.5
 10
426.641574198464
 20
265.620428373826
 10
426.641574198464
 20
211.84677755993
  0
LWPOLYLINE
  5
40D
330
1F
100
AcDbEntity
  8
Sichtbare_Kanten_TC_020513_DIN_
  6
Continuous
 62
     7
100
AcDbPolyline
 90
        2
 70
     0
 43
0.5
 10
426.641574198464
 20
282.34677755993
 10
426.641574198464
 20
281.883884341116
  0
LWPOLYLINE
  5
40E
330
1F
100
AcDbEntity
  8
Sichtbare_Kanten_TC_020513_DIN_
  6
Continuous
 62
     7
100
AcDbPolyline
 90
        2
 70
     0
 43
0.5
 10
470.141574198464
 20
265.620428373826
 10
470.141574198464
 20
211.84677755993
  0
LWPOLYLINE
  5
40F
330
1F
100
AcDbEntity
  8
Sichtbare_Kanten_TC_020513_DIN_
  6
Continuous
 62
     7
100
AcDbPolyline
 90
        2
 70
     0
 43
0.5
 10
470.141574198464
 20
282.34677755993
 10
470.141574198464
 20
281.883884341116
  0
LWPOLYLINE
  5
410
330
1F
100
AcDbEntity
  8
Sichtbare_Kanten_TC_020513_DIN_
  6
Continuous
 62
     7
100
AcDbPolyline
 90
        2
 70
     0
 43
0.5
 10
419.891574198459
 20
211.84677755993
 10
419.891574198459
 20
207.84677755993
  0
LWPOLYLINE
  5
411
330
1F
100
AcDbEntity
  8
Sichtbare_Kanten_TC_020513_DIN_
  6
Continuous
 62
     7
100
AcDbPolyline
 90
        2
 70
     0
 43
0.5
 10
419.891574198459
 20
211.84677755993
 10
420.891574198459
 20
211.84677755993
  0
LWPOLYLINE
  5
412
330
1F
100
AcDbEntity
  8
Sichtbare_Kanten_TC_020513_DIN_
  6
Continuous
 62
     7
100
AcDbPolyline
 90
        2
 70
     0
 43
0.5
 10
420.891574198459
 20
207.84677755993
 10
419.891574198459
 20
207.84677755993
  0
LWPOLYLINE
  5
413
330
1F
100
AcDbEntity
  8
Sichtbare_Kanten_TC_020513_DIN_
  6
Continuous
 62
     7
100
AcDbPolyline
 90
        2
 70
     0
 43
0.5
 10
476.891574198459
 20
207.84677755993
 10
476.891574198459
 20
211.84677755993
  0
LWPOLYLINE
  5
414
330
1F
100
AcDbEntity
  8
Sichtbare_Kanten_TC_020513_DIN_
  6
Continuous
 62
     7
100
AcDbPolyline
 90
        2
 70
     0
 43
0.5
 10
476.891574198459
 20
207.84677755993
 10
475.891574198459
 20
207.84677755993
  0
LWPOLYLINE
  5
415
330
1F
100
AcDbEntity
  8
Sichtbare_Kanten_TC_020513_DIN_
  6
Continuous
 62
     7
100
AcDbPolyline
 90
        2
 70
     0
 43
0.5
 10
475.891574198458
 20
211.84677755993
 10
476.891574198459
 20
211.84677755993
  0
LWPOLYLINE
  5
416
330
1F
100
AcDbEntity
  8
Sichtbare_Kanten_TC_020513_DIN_
  6
Continuous
 62
     7
100
AcDbPolyline
 90
        2
 70
     0
 43
0.5
 10
304.996237983308
 20
287.84677755993
 10
203.722366914397
 20
287.84677755993
  0
LWPOLYLINE
  5
417
330
1F
100
AcDbEntity
  8
Sichtbare_Kanten_TC_020513_DIN_
  6
Continuous
 62
     7
100
AcDbPolyline
 90
        2
 70
     0
 43
0.5
 10
290.923161787218
 20
282.34677755993
 10
217.795443110487
 20
282.34677755993
  0
LWPOLYLINE
  5
418
330
1F
100
AcDbEntity
  8
Sichtbare_Kanten_TC_020513_DIN_
  6
Continuous
 62
     7
100
AcDbPolyline
 90
        2
 70
     0
 43
0.5
 10
300.872143202624
 20
282.503885003925
 10
293.721709016451
 20
282.372488471628
  0
LWPOLYLINE
  5
419
330
1F
100
AcDbEntity
  8
Sichtbare_Kanten_TC_020513_DIN_
  6
Continuous
 62
     7
100
AcDbPolyline
 90
        2
 70
     0
 43
0.5
 10
304.714853694061
 20
287.247242625452
 10
302.106085573893
 20
283.192081852412
  0
LWPOLYLINE
  5
41A
330
1F
100
AcDbEntity
  8
Sichtbare_Kanten_TC_020513_DIN_
  6
Continuous
 62
     7
100
AcDbPolyline
 90
        2
 70
     0
 43
0.5
 10
304.02656433843
 20
290.721146230694
 10
304.380117729024
 20
290.367592840101
  0
LWPOLYLINE
  5
41B
330
1F
100
AcDbEntity
  8
Sichtbare_Kanten_TC_020513_DIN_
  6
Continuous
 62
     7
100
AcDbPolyline
 90
        2
 70
     0
 43
0.5
 10
310.79341388879
 20
297.031335522028
 10
304.02656433843
 20
290.721146230694
  0
LWPOLYLINE
  5
41C
330
1F
100
AcDbEntity
  8
Sichtbare_Kanten_TC_020513_DIN_
  6
Continuous
 62
     7
100
AcDbPolyline
 90
        2
 70
     0
 43
0.5
 10
326.300427945807
 20
267.033069060945
 10
333.371495757672
 20
274.104136872811
  0
LWPOLYLINE
  5
41D
330
1F
100
AcDbEntity
  8
Sichtbare_Kanten_TC_020513_DIN_
  6
Continuous
 62
     7
100
AcDbPolyline
 90
        2
 70
     0
 43
0.5
 10
326.299078759703
 20
267.034418247049
 10
326.300427945807
 20
267.033069060945
  0
LWPOLYLINE
  5
41E
330
1F
100
AcDbEntity
  8
Sichtbare_Kanten_TC_020513_DIN_
  6
Continuous
 62
     7
100
AcDbPolyline
 90
        2
 70
     0
 43
0.5
 10
317.815146571568
 20
272.689923310438
 10
317.815370260718
 20
272.690146999587
  0
LWPOLYLINE
  5
41F
330
1F
100
AcDbEntity
  8
Sichtbare_Kanten_TC_020513_DIN_
  6
Continuous
 62
     7
100
AcDbPolyline
 90
        2
 70
     0
 43
0.5
 10
305.838584277103
 20
269.229871922552
 10
317.815146571568
 20
272.689923310438
  0
LWPOLYLINE
  5
420
330
1F
100
AcDbEntity
  8
Sichtbare_Kanten_TC_020513_DIN_
  6
Continuous
 62
     7
100
AcDbPolyline
 90
        2
 70
     0
 43
0.5
 10
298.531784583409
 20
271.203709509627
 10
302.409163201958
 20
269.469261080464
  0
LWPOLYLINE
  5
421
330
1F
100
AcDbEntity
  8
Sichtbare_Kanten_TC_020513_DIN_
  6
Continuous
 62
     7
100
AcDbPolyline
 90
        2
 70
     0
 43
0.5
 10
327.713292322076
 20
282.590767433153
 10
314.150464503389
 20
296.15359525184
  0
LWPOLYLINE
  5
422
330
1F
100
AcDbEntity
  8
Sichtbare_Kanten_TC_020513_DIN_
  6
Continuous
 62
     7
100
AcDbPolyline
 90
        2
 70
     0
 43
0.5
 10
333.371495757672
 20
274.104136872811
 10
333.370146571568
 20
274.105486058915
  0
LWPOLYLINE
  5
423
330
1F
100
AcDbEntity
  8
Sichtbare_Kanten_TC_020513_DIN_
  6
Continuous
 62
     7
100
AcDbPolyline
 90
        2
 70
     0
 43
0.5
 10
317.814021074614
 20
272.691496185691
 10
327.713516011226
 20
282.590991122303
  0
LWPOLYLINE
  5
424
330
1F
100
AcDbEntity
  8
Sichtbare_Kanten_TC_020513_DIN_
  6
Continuous
 62
     7
100
AcDbPolyline
 90
        2
 70
     0
 43
0.5
 10
317.814021074614
 20
272.691496185691
 10
324.885088886479
 20
265.620428373826
  0
LWPOLYLINE
  5
425
330
1F
100
AcDbEntity
  8
Sichtbare_Kanten_TC_020513_DIN_
  6
Continuous
 62
     7
100
AcDbPolyline
 90
        2
 70
     0
 43
0.5
 10
334.784583823091
 20
275.519923310437
 10
324.885088886479
 20
265.620428373826
  0
LWPOLYLINE
  5
426
330
1F
100
AcDbEntity
  8
Sichtbare_Kanten_TC_020513_DIN_
  6
Continuous
 62
     7
100
AcDbPolyline
 90
        2
 70
     0
 43
0.5
 10
334.784583823091
 20
275.519923310437
 10
327.713516011226
 20
282.590991122303
  0
LWPOLYLINE
  5
427
330
1F
100
AcDbEntity
  8
Sichtbare_Kanten_TC_020513_DIN_
  6
Continuous
 62
     7
100
AcDbPolyline
 90
        2
 70
     0
 43
0.5
 10
336.621329767501
 20
274.214240402812
 10
341.74901073153
 20
270.755575920924
  0
LWPOLYLINE
  5
428
330
1F
100
AcDbEntity
  8
Sichtbare_Kanten_TC_020513_DIN_
  6
Continuous
 62
     7
100
AcDbPolyline
 90
        2
 70
     0
 43
0.5
 10
336.621329767501
 20
274.214240402812
 10
334.744702195633
 20
275.480041682979
  0
LWPOLYLINE
  5
429
330
1F
100
AcDbEntity
  8
Sichtbare_Kanten_TC_020513_DIN_
  6
Continuous
 62
     7
100
AcDbPolyline
 90
        2
 70
     0
 43
0.5
 10
341.74901073153
 20
270.755575920924
 10
343.604238115582
 20
269.504209249701
  0
LWPOLYLINE
  5
42A
330
1F
100
AcDbEntity
  8
Sichtbare_Kanten_TC_020513_DIN_
  6
Continuous
 62
     7
100
AcDbPolyline
 90
        2
 70
     0
 43
0.5
 10
341.92665940517
 20
267.017096532036
 10
343.604238115582
 20
269.504209249701
  0
LWPOLYLINE
  5
42B
330
1F
100
AcDbEntity
  8
Sichtbare_Kanten_TC_020513_DIN_
  6
Continuous
 62
     7
100
AcDbPolyline
 90
        2
 70
     0
 43
0.5
 10
332.54580279384
 20
272.138346263152
 10
333.682525647236
 20
271.371617017247
  0
LWPOLYLINE
  5
42C
330
1F
100
AcDbEntity
  8
Sichtbare_Kanten_TC_020513_DIN_
  6
Continuous
 62
     7
100
AcDbPolyline
 90
        2
 70
     0
 43
0.5
 10
333.682525647236
 20
271.371617017247
 10
339.301610673109
 20
267.581496310434
  0
LWPOLYLINE
  5
42D
330
1F
100
AcDbEntity
  8
Sichtbare_Kanten_TC_020513_DIN_
  6
Continuous
 62
     7
100
AcDbPolyline
 90
        2
 70
     0
 43
0.5
 10
340.538428929144
 20
266.747251862952
 10
339.301610673109
 20
267.581496310434
  0
LWPOLYLINE
  5
42E
330
1F
100
AcDbEntity
  8
Sichtbare_Kanten_TC_020513_DIN_
  6
Continuous
 62
     7
100
AcDbPolyline
 90
        2
 70
     0
 43
0.5
 10
182.419526138002
 20
267.034418247049
 10
182.418176951898
 20
267.033069060945
  0
LWPOLYLINE
  5
42F
330
1F
100
AcDbEntity
  8
Sichtbare_Kanten_TC_020513_DIN_
  6
Continuous
 62
     7
100
AcDbPolyline
 90
        2
 70
     0
 43
0.5
 10
182.418176951898
 20
267.033069060945
 10
175.347109140033
 20
274.104136872811
  0
LWPOLYLINE
  5
430
330
1F
100
AcDbEntity
  8
Sichtbare_Kanten_TC_020513_DIN_
  6
Continuous
 62
     7
100
AcDbPolyline
 90
        2
 70
     0
 43
0.5
 10
197.925191008915
 20
297.031335522028
 10
204.692040559274
 20
290.721146230694
  0
LWPOLYLINE
  5
431
330
1F
100
AcDbEntity
  8
Sichtbare_Kanten_TC_020513_DIN_
  6
Continuous
 62
     7
100
AcDbPolyline
 90
        2
 70
     0
 43
0.5
 10
204.692040559274
 20
290.721146230694
 10
204.338487168681
 20
290.367592840101
  0
LWPOLYLINE
  5
432
330
1F
100
AcDbEntity
  8
Sichtbare_Kanten_TC_020513_DIN_
  6
Continuous
 62
     7
100
AcDbPolyline
 90
        2
 70
     0
 43
0.5
 10
204.003751203644
 20
287.247242625451
 10
206.612519323812
 20
283.192081852412
  0
LWPOLYLINE
  5
433
330
1F
100
AcDbEntity
  8
Sichtbare_Kanten_TC_020513_DIN_
  6
Continuous
 62
     7
100
AcDbPolyline
 90
        2
 70
     0
 43
0.5
 10
207.84646169508
 20
282.503885003925
 10
214.996895881254
 20
282.372488471628
  0
LWPOLYLINE
  5
434
330
1F
100
AcDbEntity
  8
Sichtbare_Kanten_TC_020513_DIN_
  6
Continuous
 62
     7
100
AcDbPolyline
 90
        2
 70
     0
 43
0.5
 10
210.186820314295
 20
271.203709509627
 10
206.309441695747
 20
269.469261080464
  0
LWPOLYLINE
  5
435
330
1F
100
AcDbEntity
  8
Sichtbare_Kanten_TC_020513_DIN_
  6
Continuous
 62
     7
100
AcDbPolyline
 90
        2
 70
     0
 43
0.5
 10
202.880020620602
 20
269.229871922552
 10
190.903458326137
 20
272.689923310438
  0
LWPOLYLINE
  5
436
330
1F
100
AcDbEntity
  8
Sichtbare_Kanten_TC_020513_DIN_
  6
Continuous
 62
     7
100
AcDbPolyline
 90
        2
 70
     0
 43
0.5
 10
190.903458326137
 20
272.689923310438
 10
190.903234636987
 20
272.690146999587
  0
LWPOLYLINE
  5
437
330
1F
100
AcDbEntity
  8
Sichtbare_Kanten_TC_020513_DIN_
  6
Continuous
 62
     7
100
AcDbPolyline
 90
        2
 70
     0
 43
0.5
 10
181.005312575629
 20
282.590767433153
 10
194.568140394315
 20
296.15359525184
  0
LWPOLYLINE
  5
438
330
1F
100
AcDbEntity
  8
Sichtbare_Kanten_TC_020513_DIN_
  6
Continuous
 62
     7
100
AcDbPolyline
 90
        2
 70
     0
 43
0.5
 10
175.347109140033
 20
274.104136872811
 10
175.348458326137
 20
274.105486058915
  0
LWPOLYLINE
  5
439
330
1F
100
AcDbEntity
  8
Sichtbare_Kanten_TC_020513_DIN_
  6
Continuous
 62
     7
100
AcDbPolyline
 90
        2
 70
     0
 43
0.5
 10
190.904583823091
 20
272.691496185691
 10
181.005088886479
 20
282.590991122303
  0
LWPOLYLINE
  5
43A
330
1F
100
AcDbEntity
  8
Sichtbare_Kanten_TC_020513_DIN_
  6
Continuous
 62
     7
100
AcDbPolyline
 90
        2
 70
     0
 43
0.5
 10
190.904583823091
 20
272.691496185691
 10
183.833516011226
 20
265.620428373826
  0
LWPOLYLINE
  5
43B
330
1F
100
AcDbEntity
  8
Sichtbare_Kanten_TC_020513_DIN_
  6
Continuous
 62
     7
100
AcDbPolyline
 90
        2
 70
     0
 43
0.5
 10
173.934021074614
 20
275.519923310437
 10
183.833516011226
 20
265.620428373826
  0
LWPOLYLINE
  5
43C
330
1F
100
AcDbEntity
  8
Sichtbare_Kanten_TC_020513_DIN_
  6
Continuous
 62
     7
100
AcDbPolyline
 90
        2
 70
     0
 43
0.5
 10
173.934021074614
 20
275.519923310437
 10
181.005088886479
 20
282.590991122303
  0
LWPOLYLINE
  5
43D
330
1F
100
AcDbEntity
  8
Sichtbare_Kanten_TC_020513_DIN_
  6
Continuous
 62
     7
100
AcDbPolyline
 90
        2
 70
     0
 43
0.5
 10
166.969594166175
 20
270.755575920924
 10
172.097275130204
 20
274.214240402812
  0
LWPOLYLINE
  5
43E
330
1F
100
AcDbEntity
  8
Sichtbare_Kanten_TC_020513_DIN_
  6
Continuous
 62
     7
100
AcDbPolyline
 90
        2
 70
     0
 43
0.5
 10
165.114366782123
 20
269.504209249701
 10
166.791945492535
 20
267.017096532036
  0
LWPOLYLINE
  5
43F
330
1F
100
AcDbEntity
  8
Sichtbare_Kanten_TC_020513_DIN_
  6
Continuous
 62
     7
100
AcDbPolyline
 90
        2
 70
     0
 43
0.5
 10
165.114366782123
 20
269.504209249701
 10
166.969594166175
 20
270.755575920924
  0
LWPOLYLINE
  5
440
330
1F
100
AcDbEntity
  8
Sichtbare_Kanten_TC_020513_DIN_
  6
Continuous
 62
     7
100
AcDbPolyline
 90
        2
 70
     0
 43
0.5
 10
173.973902702072
 20
275.480041682979
 10
172.097275130204
 20
274.214240402812
  0
LWPOLYLINE
  5
441
330
1F
100
AcDbEntity
  8
Sichtbare_Kanten_TC_020513_DIN_
  6
Continuous
 62
     7
100
AcDbPolyline
 90
        2
 70
     0
 43
0.5
 10
175.036079250469
 20
271.371617017247
 10
176.172802103865
 20
272.138346263152
  0
LWPOLYLINE
  5
442
330
1F
100
AcDbEntity
  8
Sichtbare_Kanten_TC_020513_DIN_
  6
Continuous
 62
     7
100
AcDbPolyline
 90
        2
 70
     0
 43
0.5
 10
169.416994224596
 20
267.581496310434
 10
175.036079250469
 20
271.371617017247
  0
LWPOLYLINE
  5
443
330
1F
100
AcDbEntity
  8
Sichtbare_Kanten_TC_020513_DIN_
  6
Continuous
 62
     7
100
AcDbPolyline
 90
        2
 70
     0
 43
0.5
 10
169.416994224596
 20
267.581496310434
 10
168.180175968561
 20
266.747251862952
  0
LWPOLYLINE
  5
444
330
1F
100
AcDbEntity
  8
Sichtbare_Kanten_TC_020513_DIN_
  6
Continuous
 62
     7
100
AcDbPolyline
 90
        2
 70
     0
 43
0.5
 10
193.859302448852
 20
271.835974380209
 10
193.859302448852
 20
247.34677755993
  0
LWPOLYLINE
  5
445
330
1F
100
AcDbEntity
  8
Sichtbare_Kanten_TC_020513_DIN_
  6
Continuous
 62
     7
100
AcDbPolyline
 90
        2
 70
     0
 43
0.5
 10
314.859302448852
 20
271.835974380209
 10
314.859302448852
 20
247.34677755993
  0
LWPOLYLINE
  5
446
330
1F
100
AcDbEntity
  8
Sichtbare_Kanten_TC_020513_DIN_
  6
Continuous
 62
     7
100
AcDbPolyline
 90
        2
 70
     0
 43
0.5
 10
314.859302448852
 20
217.34677755993
 10
314.859302448852
 20
211.84677755993
  0
LWPOLYLINE
  5
447
330
1F
100
AcDbEntity
  8
Sichtbare_Kanten_TC_020513_DIN_
  6
Continuous
 62
     7
100
AcDbPolyline
 90
        2
 70
     0
 43
0.5
 10
193.859302448852
 20
217.34677755993
 10
193.859302448852
 20
211.84677755993
  0
LWPOLYLINE
  5
448
330
1F
100
AcDbEntity
  8
Sichtbare_Kanten_TC_020513_DIN_
  6
Continuous
 62
     7
100
AcDbPolyline
 90
        2
 70
     0
 43
0.5
 10
193.859302448852
 20
254.09677755993
 10
182.359302448852
 20
254.09677755993
  0
LWPOLYLINE
  5
449
330
1F
100
AcDbEntity
  8
Sichtbare_Kanten_TC_020513_DIN_
  6
Continuous
 62
     7
100
AcDbPolyline
 90
        2
 70
     0
 43
0.5
 10
198.859302448852
 20
230.437985577455
 10
198.859302448852
 20
234.255569542405
  0
LWPOLYLINE
  5
44A
330
1F
100
AcDbEntity
  8
Sichtbare_Kanten_TC_020513_DIN_
  6
Continuous
 62
     7
100
AcDbPolyline
 90
        2
 70
     0
 43
0.5
 10
182.359302448852
 20
254.09677755993
 10
182.359302448852
 20
211.84677755993
  0
LWPOLYLINE
  5
44B
330
1F
100
AcDbEntity
  8
Sichtbare_Kanten_TC_020513_DIN_
  6
Continuous
 62
     7
100
AcDbPolyline
 90
        2
 70
     0
 43
0.5
 10
182.359302448852
 20
211.84677755993
 10
182.359302448852
 20
207.84677755993
  0
LWPOLYLINE
  5
44C
330
1F
100
AcDbEntity
  8
Sichtbare_Kanten_TC_020513_DIN_
  6
Continuous
 62
     7
100
AcDbPolyline
 90
        2
 70
     0
 43
0.5
 10
193.091353256421
 20
211.84677755993
 10
183.359302448852
 20
211.84677755993
  0
LWPOLYLINE
  5
44D
330
1F
100
AcDbEntity
  8
Sichtbare_Kanten_TC_020513_DIN_
  6
Continuous
 62
     7
100
AcDbPolyline
 90
        2
 70
     0
 43
0.5
 10
193.091353256421
 20
207.84677755993
 10
183.359302448852
 20
207.84677755993
  0
LWPOLYLINE
  5
44E
330
1F
100
AcDbEntity
  8
Sichtbare_Kanten_TC_020513_DIN_
  6
Continuous
 62
     7
100
AcDbPolyline
 90
        2
 70
     0
 43
0.5
 10
315.627251641284
 20
207.84677755993
 10
325.359302448852
 20
207.84677755993
  0
LWPOLYLINE
  5
44F
330
1F
100
AcDbEntity
  8
Sichtbare_Kanten_TC_020513_DIN_
  6
Continuous
 62
     7
100
AcDbPolyline
 90
        2
 70
     0
 43
0.5
 10
315.627251641284
 20
211.84677755993
 10
325.359302448852
 20
211.84677755993
  0
LWPOLYLINE
  5
450
330
1F
100
AcDbEntity
  8
Sichtbare_Kanten_TC_020513_DIN_
  6
Continuous
 62
     7
100
AcDbPolyline
 90
        2
 70
     0
 43
0.5
 10
326.359302448852
 20
254.09677755993
 10
314.859302448852
 20
254.09677755993
  0
LWPOLYLINE
  5
451
330
1F
100
AcDbEntity
  8
Sichtbare_Kanten_TC_020513_DIN_
  6
Continuous
 62
     7
100
AcDbPolyline
 90
        2
 70
     0
 43
0.5
 10
309.859302448852
 20
230.437985577455
 10
309.859302448852
 20
234.255569542405
  0
LWPOLYLINE
  5
452
330
1F
100
AcDbEntity
  8
Sichtbare_Kanten_TC_020513_DIN_
  6
Continuous
 62
     7
100
AcDbPolyline
 90
        2
 70
     0
 43
0.5
 10
326.359302448852
 20
254.09677755993
 10
326.359302448852
 20
211.84677755993
  0
LWPOLYLINE
  5
453
330
1F
100
AcDbEntity
  8
Sichtbare_Kanten_TC_020513_DIN_
  6
Continuous
 62
     7
100
AcDbPolyline
 90
        2
 70
     0
 43
0.5
 10
326.359302448852
 20
207.84677755993
 10
326.359302448852
 20
211.84677755993
  0
LWPOLYLINE
  5
454
330
1F
100
AcDbEntity
  8
Sichtbare_Kanten_TC_020513_DIN_
  6
Continuous
 62
     7
100
AcDbPolyline
 90
        2
 70
     0
 43
0.5
 10
254.359302448852
 20
271.59677755993
 10
253.234302448852
 20
273.150357373616
  0
LWPOLYLINE
  5
455
330
1F
100
AcDbEntity
  8
Sichtbare_Kanten_TC_020513_DIN_
  6
Continuous
 62
     7
100
AcDbPolyline
 90
        2
 70
     0
 43
0.5
 10
253.234302448852
 20
273.150357373616
 10
253.234302448852
 20
269.159998513567
  0
LWPOLYLINE
  5
456
330
1F
100
AcDbEntity
  8
Sichtbare_Kanten_TC_020513_DIN_
  6
Continuous
 62
     7
100
AcDbPolyline
 90
        2
 70
     0
 43
0.5
 10
252.484302448852
 20
269.159998513567
 10
252.484302448852
 20
274.307595067832
  0
LWPOLYLINE
  5
457
330
1F
100
AcDbEntity
  8
Sichtbare_Kanten_TC_020513_DIN_
  6
Continuous
 62
     7
100
AcDbPolyline
 90
        2
 70
     0
 43
0.5
 10
253.163031308343
 20
274.527535468651
 10
254.359302448852
 20
272.87553307257
  0
LWPOLYLINE
  5
458
330
1F
100
AcDbEntity
  8
Sichtbare_Kanten_TC_020513_DIN_
  6
Continuous
 62
     7
100
AcDbPolyline
 90
        2
 70
     0
 43
0.5
 10
254.359302448852
 20
272.87553307257
 10
255.555573589362
 20
274.527535468651
  0
LWPOLYLINE
  5
459
330
1F
100
AcDbEntity
  8
Sichtbare_Kanten_TC_020513_DIN_
  6
Continuous
 62
     7
100
AcDbPolyline
 90
        2
 70
     0
 43
0.5
 10
256.234302448852
 20
274.307595067832
 10
256.234302448852
 20
267.385960052028
  0
LWPOLYLINE
  5
45A
330
1F
100
AcDbEntity
  8
Sichtbare_Kanten_TC_020513_DIN_
  6
Continuous
 62
     7
100
AcDbPolyline
 90
        2
 70
     0
 43
0.5
 10
255.484302448852
 20
267.385960052028
 10
255.484302448852
 20
273.150357373616
  0
LWPOLYLINE
  5
45B
330
1F
100
AcDbEntity
  8
Sichtbare_Kanten_TC_020513_DIN_
  6
Continuous
 62
     7
100
AcDbPolyline
 90
        2
 70
     0
 43
0.5
 10
255.484302448852
 20
273.150357373616
 10
254.359302448852
 20
271.59677755993
  0
LWPOLYLINE
  5
45C
330
1F
100
AcDbEntity
  8
Sichtbare_Kanten_TC_020513_DIN_
  6
Continuous
 62
     7
100
AcDbPolyline
 90
        2
 70
     0
 43
0.5
 10
251.659302448852
 20
273.398941221678
 10
251.659302448852
 20
268.511200369907
  0
LWPOLYLINE
  5
45D
330
1F
100
AcDbEntity
  8
Sichtbare_Kanten_TC_020513_DIN_
  6
Continuous
 62
     7
100
AcDbPolyline
 90
        2
 70
     0
 43
0.5
 10
251.659302448852
 20
268.511200369907
 10
254.546698368911
 20
266.845395031412
  0
LWPOLYLINE
  5
45E
330
1F
100
AcDbEntity
  8
Sichtbare_Kanten_TC_020513_DIN_
  6
Continuous
 62
     7
100
AcDbPolyline
 90
        2
 70
     0
 43
0.5
 10
254.171906528794
 20
266.195755841875
 10
251.096906528794
 20
267.969794303414
  0
LWPOLYLINE
  5
45F
330
1F
100
AcDbEntity
  8
Sichtbare_Kanten_TC_020513_DIN_
  6
Continuous
 62
     7
100
AcDbPolyline
 90
        2
 70
     0
 43
0.5
 10
250.909302448852
 20
268.294613898182
 10
250.909302448852
 20
273.398941221678
  0
LWPOLYLINE
  5
460
330
1F
100
AcDbEntity
  8
Sichtbare_Kanten_TC_020513_DIN_
  6
Continuous
 62
     7
100
AcDbPolyline
 90
        2
 70
     0
 43
0.5
 10
254.359302448852
 20
276.038844934359
 10
245.359718999843
 20
270.84677755993
  0
LWPOLYLINE
  5
461
330
1F
100
AcDbEntity
  8
Sichtbare_Kanten_TC_020513_DIN_
  6
Continuous
 62
     7
100
AcDbPolyline
 90
        2
 70
     0
 43
0.5
 10
263.358885897862
 20
270.84677755993
 10
254.359302448852
 20
276.038844934359
  0
LWPOLYLINE
  5
462
330
1F
100
AcDbEntity
  8
Sichtbare_Kanten_TC_020513_DIN_
  6
Continuous
 62
     7
100
AcDbPolyline
 90
        2
 70
     0
 43
0.5
 10
254.359302448852
 20
265.654710185501
 10
263.358885897862
 20
270.84677755993
  0
LWPOLYLINE
  5
463
330
1F
100
AcDbEntity
  8
Sichtbare_Kanten_TC_020513_DIN_
  6
Continuous
 62
     7
100
AcDbPolyline
 90
        2
 70
     0
 43
0.5
 10
245.359718999843
 20
270.84677755993
 10
254.359302448852
 20
265.654710185501
  0
LWPOLYLINE
  5
464
330
1F
100
AcDbEntity
  8
Sichtbare_Kanten_TC_020513_DIN_
  6
Continuous
 62
     7
100
AcDbPolyline
 90
        2
 70
     0
 43
0.5
 10
250.159302448852
 20
272.533556606293
 10
250.159302448852
 20
269.159998513567
  0
LWPOLYLINE
  5
465
330
1F
100
AcDbEntity
  8
Sichtbare_Kanten_TC_020513_DIN_
  6
Continuous
 62
     7
100
AcDbPolyline
 90
        2
 70
     0
 43
0.5
 10
249.409302448852
 20
269.159998513567
 10
249.409302448852
 20
272.533556606293
  0
LWPOLYLINE
  5
466
330
1F
100
AcDbEntity
  8
Sichtbare_Kanten_TC_020513_DIN_
  6
Continuous
 62
     7
100
AcDbPolyline
 90
        2
 70
     0
 43
0.5
 10
257.546698368911
 20
273.767030047215
 10
259.796698368911
 20
272.468953124138
  0
LWPOLYLINE
  5
467
330
1F
100
AcDbEntity
  8
Sichtbare_Kanten_TC_020513_DIN_
  6
Continuous
 62
     7
100
AcDbPolyline
 90
        2
 70
     0
 43
0.5
 10
259.421906528794
 20
271.819313934602
 10
257.734302448852
 20
272.792931673029
  0
LWPOLYLINE
  5
468
330
1F
100
AcDbEntity
  8
Sichtbare_Kanten_TC_020513_DIN_
  6
Continuous
 62
     7
100
AcDbPolyline
 90
        2
 70
     0
 43
0.5
 10
257.734302448852
 20
272.792931673029
 10
257.734302448852
 20
271.22177755993
  0
LWPOLYLINE
  5
469
330
1F
100
AcDbEntity
  8
Sichtbare_Kanten_TC_020513_DIN_
  6
Continuous
 62
     7
100
AcDbPolyline
 90
        2
 70
     0
 43
0.5
 10
257.734302448852
 20
271.22177755993
 10
259.609302448852
 20
271.22177755993
  0
LWPOLYLINE
  5
46A
330
1F
100
AcDbEntity
  8
Sichtbare_Kanten_TC_020513_DIN_
  6
Continuous
 62
     7
100
AcDbPolyline
 90
        2
 70
     0
 43
0.5
 10
259.609302448852
 20
270.47177755993
 10
257.734302448852
 20
270.47177755993
  0
LWPOLYLINE
  5
46B
330
1F
100
AcDbEntity
  8
Sichtbare_Kanten_TC_020513_DIN_
  6
Continuous
 62
     7
100
AcDbPolyline
 90
        2
 70
     0
 43
0.5
 10
257.734302448852
 20
270.47177755993
 10
257.734302448852
 20
268.90062344683
  0
LWPOLYLINE
  5
46C
330
1F
100
AcDbEntity
  8
Sichtbare_Kanten_TC_020513_DIN_
  6
Continuous
 62
     7
100
AcDbPolyline
 90
        2
 70
     0
 43
0.5
 10
257.734302448852
 20
268.90062344683
 10
259.421906528794
 20
269.874241185258
  0
LWPOLYLINE
  5
46D
330
1F
100
AcDbEntity
  8
Sichtbare_Kanten_TC_020513_DIN_
  6
Continuous
 62
     7
100
AcDbPolyline
 90
        2
 70
     0
 43
0.5
 10
259.796698368911
 20
269.224601995722
 10
257.546698368911
 20
267.926525072645
  0
LWPOLYLINE
  5
46E
330
1F
100
AcDbEntity
  8
Sichtbare_Kanten_TC_020513_DIN_
  6
Continuous
 62
     7
100
AcDbPolyline
 90
        2
 70
     0
 43
0.5
 10
256.984302448852
 20
268.251344667413
 10
256.984302448852
 20
273.442210452447
  0
LWPOLYLINE
  5
46F
330
1F
100
AcDbEntity
  8
Sichtbare_Kanten_TC_020513_DIN_
  6
Continuous
 62
     7
100
AcDbPolyline
 90
        2
 70
     0
 43
0.5
 10
264.109302448852
 20
270.84677755993
 10
254.359302448852
 20
265.22177755993
  0
LWPOLYLINE
  5
470
330
1F
100
AcDbEntity
  8
Sichtbare_Kanten_TC_020513_DIN_
  6
Continuous
 62
     7
100
AcDbPolyline
 90
        2
 70
     0
 43
0.5
 10
254.359302448852
 20
276.47177755993
 10
264.109302448852
 20
270.84677755993
  0
LWPOLYLINE
  5
471
330
1F
100
AcDbEntity
  8
Sichtbare_Kanten_TC_020513_DIN_
  6
Continuous
 62
     7
100
AcDbPolyline
 90
        2
 70
     0
 43
0.5
 10
244.609302448852
 20
270.84677755993
 10
254.359302448852
 20
276.47177755993
  0
LWPOLYLINE
  5
472
330
1F
100
AcDbEntity
  8
Sichtbare_Kanten_TC_020513_DIN_
  6
Continuous
 62
     7
100
AcDbPolyline
 90
        2
 70
     0
 43
0.5
 10
254.359302448852
 20
265.22177755993
 10
244.609302448852
 20
270.84677755993
  0
LWPOLYLINE
  5
473
330
1F
100
AcDbEntity
  8
Sichtbare_Kanten_TC_020513_DIN_
  6
Continuous
 62
     7
100
AcDbPolyline
 90
        2
 70
     0
 43
0.5
 10
303.400010305331
 20
208.34677755993
 10
205.318594592374
 20
208.34677755993
  0
LWPOLYLINE
  5
474
330
1F
100
AcDbEntity
  8
Sichtbare_Kanten_TC_020513_DIN_
  6
Continuous
 62
     7
100
AcDbPolyline
 90
        2
 70
     0
 43
0.5
 10
315.127251641284
 20
208.34677755993
 10
303.900010305331
 20
208.34677755993
  0
LWPOLYLINE
  5
475
330
1F
100
AcDbEntity
  8
Sichtbare_Kanten_TC_020513_DIN_
  6
Continuous
 62
     7
100
AcDbPolyline
 90
        2
 70
     0
 43
0.5
 10
303.900010305331
 20
211.84677755993
 10
315.127251641284
 20
211.84677755993
  0
LWPOLYLINE
  5
476
330
1F
100
AcDbEntity
  8
Sichtbare_Kanten_TC_020513_DIN_
  6
Continuous
 62
     7
100
AcDbPolyline
 90
        2
 70
     0
 43
0.5
 10
193.591353256421
 20
208.34677755993
 10
204.818594592374
 20
208.34677755993
  0
LWPOLYLINE
  5
477
330
1F
100
AcDbEntity
  8
Sichtbare_Kanten_TC_020513_DIN_
  6
Continuous
 62
     7
100
AcDbPolyline
 90
        2
 70
     0
 43
0.5
 10
204.818594592374
 20
211.84677755993
 10
193.591353256421
 20
211.84677755993
  0
LWPOLYLINE
  5
478
330
1F
100
AcDbEntity
  8
Sichtbare_Kanten_TC_020513_DIN_
  6
Continuous
 62
     7
100
AcDbPolyline
 90
        2
 70
     0
 43
0.5
 10
193.091353256421
 20
211.84677755993
 10
193.591353256421
 20
211.84677755993
  0
LWPOLYLINE
  5
479
330
1F
100
AcDbEntity
  8
Sichtbare_Kanten_TC_020513_DIN_
  6
Continuous
 62
     7
100
AcDbPolyline
 90
        2
 70
     0
 43
0.5
 10
193.359302448852
 20
207.84677755993
 10
193.359302448852
 20
208.34677755993
  0
LWPOLYLINE
  5
47A
330
1F
100
AcDbEntity
  8
Sichtbare_Kanten_TC_020513_DIN_
  6
Continuous
 62
     7
100
AcDbPolyline
 90
        2
 70
     0
 43
0.5
 10
193.359302448852
 20
207.84677755993
 10
193.091353256421
 20
207.84677755993
  0
LWPOLYLINE
  5
47B
330
1F
100
AcDbEntity
  8
Sichtbare_Kanten_TC_020513_DIN_
  6
Continuous
 62
     7
100
AcDbPolyline
 90
        2
 70
     0
 43
0.5
 10
183.359302448852
 20
207.84677755993
 10
182.359302448852
 20
207.84677755993
  0
LWPOLYLINE
  5
47C
330
1F
100
AcDbEntity
  8
Sichtbare_Kanten_TC_020513_DIN_
  6
Continuous
 62
     7
100
AcDbPolyline
 90
        2
 70
     0
 43
0.5
 10
182.359302448852
 20
211.84677755993
 10
183.359302448852
 20
211.84677755993
  0
LWPOLYLINE
  5
47D
330
1F
100
AcDbEntity
  8
Sichtbare_Kanten_TC_020513_DIN_
  6
Continuous
 62
     7
100
AcDbPolyline
 90
        2
 70
     0
 43
0.5
 10
315.627251641284
 20
207.84677755993
 10
315.359302448852
 20
207.84677755993
  0
LWPOLYLINE
  5
47E
330
1F
100
AcDbEntity
  8
Sichtbare_Kanten_TC_020513_DIN_
  6
Continuous
 62
     7
100
AcDbPolyline
 90
        2
 70
     0
 43
0.5
 10
315.359302448852
 20
208.34677755993
 10
315.359302448852
 20
207.84677755993
  0
LWPOLYLINE
  5
47F
330
1F
100
AcDbEntity
  8
Sichtbare_Kanten_TC_020513_DIN_
  6
Continuous
 62
     7
100
AcDbPolyline
 90
        2
 70
     0
 43
0.5
 10
193.591353256421
 20
208.34677755993
 10
193.359302448852
 20
208.34677755993
  0
LWPOLYLINE
  5
480
330
1F
100
AcDbEntity
  8
Sichtbare_Kanten_TC_020513_DIN_
  6
Continuous
 62
     7
100
AcDbPolyline
 90
        2
 70
     0
 43
0.5
 10
315.359302448852
 20
208.34677755993
 10
315.127251641284
 20
208.34677755993
  0
LWPOLYLINE
  5
481
330
1F
100
AcDbEntity
  8
Sichtbare_Kanten_TC_020513_DIN_
  6
Continuous
 62
     7
100
AcDbPolyline
 90
        2
 70
     0
 43
0.5
 10
315.127251641284
 20
211.84677755993
 10
315.627251641284
 20
211.84677755993
  0
LWPOLYLINE
  5
482
330
1F
100
AcDbEntity
  8
Sichtbare_Kanten_TC_020513_DIN_
  6
Continuous
 62
     7
100
AcDbPolyline
 90
        2
 70
     0
 43
0.5
 10
326.359302448852
 20
207.84677755993
 10
325.359302448852
 20
207.84677755993
  0
LWPOLYLINE
  5
483
330
1F
100
AcDbEntity
  8
Sichtbare_Kanten_TC_020513_DIN_
  6
Continuous
 62
     7
100
AcDbPolyline
 90
        2
 70
     0
 43
0.5
 10
325.359302448852
 20
211.84677755993
 10
326.359302448852
 20
211.84677755993
  0
LWPOLYLINE
  5
484
330
1F
100
AcDbEntity
  8
Sichtbare_Kanten_TC_020513_DIN_
  6
Continuous
 62
     7
100
AcDbPolyline
 90
        2
 70
     0
 43
0.5
 10
303.400010305331
 20
208.34677755993
 10
303.900010305331
 20
208.34677755993
  0
LWPOLYLINE
  5
485
330
1F
100
AcDbEntity
  8
Sichtbare_Kanten_TC_020513_DIN_
  6
Continuous
 62
     7
100
AcDbPolyline
 90
        2
 70
     0
 43
0.5
 10
303.900010305331
 20
211.84677755993
 10
303.400010305331
 20
211.84677755993
  0
LWPOLYLINE
  5
486
330
1F
100
AcDbEntity
  8
Sichtbare_Kanten_TC_020513_DIN_
  6
Continuous
 62
     7
100
AcDbPolyline
 90
        2
 70
     0
 43
0.5
 10
204.818594592374
 20
208.34677755993
 10
205.318594592374
 20
208.34677755993
  0
LWPOLYLINE
  5
487
330
1F
100
AcDbEntity
  8
Sichtbare_Kanten_TC_020513_DIN_
  6
Continuous
 62
     7
100
AcDbPolyline
 90
        2
 70
     0
 43
0.5
 10
205.318594592374
 20
211.84677755993
 10
204.818594592374
 20
211.84677755993
  0
LWPOLYLINE
  5
488
330
1F
100
AcDbEntity
  8
Stich_1-Linien_TC_020513_DIN_
  6
DASHED_SPACE
 62
     7
100
AcDbPolyline
 90
        2
 70
     0
 43
0.25
 10
332.160635851609
 20
244.879057213738
 42
0.17659445654681
 10
344.36155668661
 20
278.34677755993
  0
LWPOLYLINE
  5
489
330
1F
100
AcDbEntity
  8
Stich_1-Linien_TC_020513_DIN_
  6
DASHED_SPACE
 62
     7
100
AcDbPolyline
 90
        2
 70
     0
 43
0.25
 10
164.357048211095
 20
278.34677755993
 42
0.17659445654681
 10
176.557969046095
 20
244.879057213738
  0
LWPOLYLINE
  5
48A
330
1F
100
AcDbEntity
  8
Sichtbare_Kanten_TC_020513_DIN_
  6
Continuous
 62
     7
100
AcDbPolyline
 90
        2
 70
     0
 43
0.5
 10
477.391574198469
 20
281.99677755993
 42
0.24153136105873
 10
477.141574198469
 20
282.48411727717
  0
LWPOLYLINE
  5
48B
330
1F
100
AcDbEntity
  8
Sichtbare_Kanten_TC_020513_DIN_
  6
Continuous
 62
     7
100
AcDbPolyline
 90
        2
 70
     0
 43
0.5
 10
476.874702065589
 20
282.590991122303
 42
0.0696088787962
 10
476.708446331349
 20
282.590991122303
  0
LWPOLYLINE
  5
48C
330
1F
100
AcDbEntity
  8
Sichtbare_Kanten_TC_020513_DIN_
  6
Continuous
 62
     7
100
AcDbPolyline
 90
        2
 70
     0
 43
0.5
 10
477.141574198469
 20
274.209437842689
 42
0.24153136105901
 10
477.391574198469
 20
274.69677755993
  0
LWPOLYLINE
  5
48D
330
1F
100
AcDbEntity
  8
Sichtbare_Kanten_TC_020513_DIN_
  6
Continuous
 62
     7
100
AcDbPolyline
 90
        2
 70
     0
 43
0.5
 10
420.431574198466
 20
294.97677755993
 42
0.4142135623731
 10
420.631574198466
 20
294.77677755993
  0
LWPOLYLINE
  5
48E
330
1F
100
AcDbEntity
  8
Sichtbare_Kanten_TC_020513_DIN_
  6
Continuous
 62
     7
100
AcDbPolyline
 90
        2
 70
     0
 43
0.5
 10
420.631574198466
 20
297.27677755993
 42
0.4142135623731
 10
420.431574198466
 20
297.07677755993
  0
LWPOLYLINE
  5
48F
330
1F
100
AcDbEntity
  8
Sichtbare_Kanten_TC_020513_DIN_
  6
Continuous
 62
     7
100
AcDbPolyline
 90
        2
 70
     0
 43
0.5
 10
425.651574198467
 20
294.77677755993
 42
0.41421356237443
 10
425.851574198466
 20
294.97677755993
  0
LWPOLYLINE
  5
490
330
1F
100
AcDbEntity
  8
Sichtbare_Kanten_TC_020513_DIN_
  6
Continuous
 62
     7
100
AcDbPolyline
 90
        2
 70
     0
 43
0.5
 10
425.851574198466
 20
297.07677755993
 42
0.41421356237443
 10
425.651574198467
 20
297.27677755993
  0
LWPOLYLINE
  5
491
330
1F
100
AcDbEntity
  8
Sichtbare_Kanten_TC_020513_DIN_
  6
Continuous
 62
     7
100
AcDbPolyline
 90
        2
 70
     0
 43
0.5
 10
419.391574198469
 20
274.69677755993
 42
0.24153136105903
 10
419.641574198469
 20
274.209437842689
  0
LWPOLYLINE
  5
492
330
1F
100
AcDbEntity
  8
Sichtbare_Kanten_TC_020513_DIN_
  6
Continuous
 62
     7
100
AcDbPolyline
 90
        2
 70
     0
 43
0.5
 10
420.074702065588
 20
282.590991122303
 42
0.06960887879578
 10
419.908446331349
 20
282.590991122303
  0
LWPOLYLINE
  5
493
330
1F
100
AcDbEntity
  8
Sichtbare_Kanten_TC_020513_DIN_
  6
Continuous
 62
     7
100
AcDbPolyline
 90
        2
 70
     0
 43
0.5
 10
419.641574198469
 20
282.48411727717
 42
0.24153136105912
 10
419.391574198469
 20
281.99677755993
  0
LWPOLYLINE
  5
494
330
1F
100
AcDbEntity
  8
Sichtbare_Kanten_TC_020513_DIN_
  6
Continuous
 62
     7
100
AcDbPolyline
 90
        2
 70
     0
 43
0.5
 10
471.131574198467
 20
297.27677755993
 42
0.41421356237451
 10
470.931574198466
 20
297.07677755993
  0
LWPOLYLINE
  5
495
330
1F
100
AcDbEntity
  8
Sichtbare_Kanten_TC_020513_DIN_
  6
Continuous
 62
     7
100
AcDbPolyline
 90
        2
 70
     0
 43
0.5
 10
470.931574198466
 20
294.97677755993
 42
0.41421356237451
 10
471.131574198467
 20
294.77677755993
  0
LWPOLYLINE
  5
496
330
1F
100
AcDbEntity
  8
Sichtbare_Kanten_TC_020513_DIN_
  6
Continuous
 62
     7
100
AcDbPolyline
 90
        2
 70
     0
 43
0.5
 10
476.351574198466
 20
297.07677755993
 42
0.4142135623731
 10
476.151574198466
 20
297.27677755993
  0
LWPOLYLINE
  5
497
330
1F
100
AcDbEntity
  8
Sichtbare_Kanten_TC_020513_DIN_
  6
Continuous
 62
     7
100
AcDbPolyline
 90
        2
 70
     0
 43
0.5
 10
476.151574198466
 20
294.77677755993
 42
0.4142135623731
 10
476.351574198466
 20
294.97677755993
  0
LWPOLYLINE
  5
498
330
1F
100
AcDbEntity
  8
Sichtbare_Kanten_TC_020513_DIN_
  6
Continuous
 62
     7
100
AcDbPolyline
 90
        2
 70
     0
 43
0.5
 10
455.658795125333
 20
211.84677755993
 42
5.81377674149934
 10
441.124353271584
 20
211.84677755993
  0
LWPOLYLINE
  5
499
330
1F
100
AcDbEntity
  8
Sichtbare_Kanten_TC_020513_DIN_
  6
Continuous
 62
     7
100
AcDbPolyline
 90
        2
 70
     0
 43
0.5
 10
300.872143202624
 20
282.503885003925
 42
0.2502237838601
 10
302.106085573893
 20
283.192081852412
  0
LWPOLYLINE
  5
49A
330
1F
100
AcDbEntity
  8
Sichtbare_Kanten_TC_020513_DIN_
  6
Continuous
 62
     7
100
AcDbPolyline
 90
        2
 70
     0
 43
0.5
 10
304.714853694061
 20
287.247242625452
 42
0.35291109184922
 10
304.380117729024
 20
290.367592840101
  0
LWPOLYLINE
  5
49B
330
1F
100
AcDbEntity
  8
Sichtbare_Kanten_TC_020513_DIN_
  6
Continuous
 62
     7
100
AcDbPolyline
 90
        2
 70
     0
 43
0.5
 10
296.200882612122
 20
276.528877164095
 42
0.62685560099197
 10
302.413504128312
 20
275.481494822534
  0
LWPOLYLINE
  5
49C
330
1F
100
AcDbEntity
  8
Sichtbare_Kanten_TC_020513_DIN_
  6
Continuous
 62
     7
100
AcDbPolyline
 90
        2
 70
     0
 43
0.5
 10
305.852396247198
 20
276.103485549645
 42
0.40750055848267
 10
302.413504128312
 20
275.481494822534
  0
LWPOLYLINE
  5
49D
330
1F
100
AcDbEntity
  8
Sichtbare_Kanten_TC_020513_DIN_
  6
Continuous
 62
     7
100
AcDbPolyline
 90
        2
 70
     0
 43
0.5
 10
305.852396247198
 20
276.103485549645
 42
0.33653733956714
 10
310.078356956833
 20
276.33312415369
  0
LWPOLYLINE
  5
49E
330
1F
100
AcDbEntity
  8
Sichtbare_Kanten_TC_020513_DIN_
  6
Continuous
 62
     7
100
AcDbPolyline
 90
        2
 70
     0
 43
0.5
 10
310.078356956833
 20
276.33312415369
 42
0.43839485340413
 10
310.920855454999
 20
296.908330566077
  0
LWPOLYLINE
  5
49F
330
1F
100
AcDbEntity
  8
Sichtbare_Kanten_TC_020513_DIN_
  6
Continuous
 62
     7
100
AcDbPolyline
 90
        2
 70
     0
 43
0.5
 10
310.920855454999
 20
296.908330566077
 42
0.33578345721091
 10
304.942611460121
 20
297.735498508926
  0
LWPOLYLINE
  5
4A0
330
1F
100
AcDbEntity
  8
Sichtbare_Kanten_TC_020513_DIN_
  6
Continuous
 62
     7
100
AcDbPolyline
 90
        2
 70
     0
 43
0.5
 10
304.942611460121
 20
297.735498508926
 42
0.2528529192153
 10
303.670041969825
 20
295.728332586409
  0
LWPOLYLINE
  5
4A1
330
1F
100
AcDbEntity
  8
Sichtbare_Kanten_TC_020513_DIN_
  6
Continuous
 62
     7
100
AcDbPolyline
 90
        2
 70
     0
 43
0.5
 10
296.882811692458
 20
299.426276794515
 42
1.55730089701011
 10
303.670041969825
 20
295.728332586409
  0
LWPOLYLINE
  5
4A2
330
1F
100
AcDbEntity
  8
Sichtbare_Kanten_TC_020513_DIN_
  6
Continuous
 62
     7
100
AcDbPolyline
 90
        2
 70
     0
 43
0.5
 10
312.335069017372
 20
298.32254412845
 42
0.37303332625225
 10
296.882811692458
 20
299.426276794515
  0
LWPOLYLINE
  5
4A3
330
1F
100
AcDbEntity
  8
Sichtbare_Kanten_TC_020513_DIN_
  6
Continuous
 62
     7
100
AcDbPolyline
 90
        2
 70
     0
 43
0.5
 10
291.435213751689
 20
274.198457408378
 42
0.9309493362513
 10
312.335069017372
 20
298.32254412845
  0
LWPOLYLINE
  5
4A4
330
1F
100
AcDbEntity
  8
Sichtbare_Kanten_TC_020513_DIN_
  6
Continuous
 62
     7
100
AcDbPolyline
 90
        2
 70
     0
 43
0.5
 10
300.800041199768
 20
301.353228092577
 42
3.78996837926628
 10
304.704313319912
 20
297.583781191975
  0
LWPOLYLINE
  5
4A5
330
1F
100
AcDbEntity
  8
Sichtbare_Kanten_TC_020513_DIN_
  6
Continuous
 62
     7
100
AcDbPolyline
 90
        2
 70
     0
 43
0.5
 10
302.409163201958
 20
269.469261080464
 42
0.17729112520569
 10
305.838584277103
 20
269.229871922552
  0
LWPOLYLINE
  5
4A6
330
1F
100
AcDbEntity
  8
Sichtbare_Kanten_TC_020513_DIN_
  6
Continuous
 62
     7
100
AcDbPolyline
 90
        2
 70
     0
 43
0.5
 10
340.538428929144
 20
266.747251862952
 42
0.4142135623731
 10
341.92665940517
 20
267.017096532036
  0
LWPOLYLINE
  5
4A7
330
1F
100
AcDbEntity
  8
Sichtbare_Kanten_TC_020513_DIN_
  6
Continuous
 62
     7
100
AcDbPolyline
 90
        2
 70
     0
 43
0.5
 10
204.338487168681
 20
290.367592840101
 42
0.35291109184932
 10
204.003751203644
 20
287.247242625451
  0
LWPOLYLINE
  5
4A8
330
1F
100
AcDbEntity
  8
Sichtbare_Kanten_TC_020513_DIN_
  6
Continuous
 62
     7
100
AcDbPolyline
 90
        2
 70
     0
 43
0.5
 10
206.612519323812
 20
283.192081852412
 42
0.25022378385992
 10
207.84646169508
 20
282.503885003925
  0
LWPOLYLINE
  5
4A9
330
1F
100
AcDbEntity
  8
Sichtbare_Kanten_TC_020513_DIN_
  6
Continuous
 62
     7
100
AcDbPolyline
 90
        2
 70
     0
 43
0.5
 10
211.835793205247
 20
299.426276794515
 42
0.37303332625227
 10
196.383535880332
 20
298.32254412845
  0
LWPOLYLINE
  5
4AA
330
1F
100
AcDbEntity
  8
Sichtbare_Kanten_TC_020513_DIN_
  6
Continuous
 62
     7
100
AcDbPolyline
 90
        2
 70
     0
 43
0.5
 10
205.04856292788
 20
295.728332586409
 42
1.55730089701014
 10
211.835793205247
 20
299.426276794515
  0
LWPOLYLINE
  5
4AB
330
1F
100
AcDbEntity
  8
Sichtbare_Kanten_TC_020513_DIN_
  6
Continuous
 62
     7
100
AcDbPolyline
 90
        2
 70
     0
 43
0.5
 10
205.04856292788
 20
295.728332586409
 42
0.2528529192153
 10
203.775993437584
 20
297.735498508926
  0
LWPOLYLINE
  5
4AC
330
1F
100
AcDbEntity
  8
Sichtbare_Kanten_TC_020513_DIN_
  6
Continuous
 62
     7
100
AcDbPolyline
 90
        2
 70
     0
 43
0.5
 10
203.775993437584
 20
297.735498508926
 42
0.33578345721091
 10
197.797749442706
 20
296.908330566077
  0
LWPOLYLINE
  5
4AD
330
1F
100
AcDbEntity
  8
Sichtbare_Kanten_TC_020513_DIN_
  6
Continuous
 62
     7
100
AcDbPolyline
 90
        2
 70
     0
 43
0.5
 10
197.797749442706
 20
296.908330566077
 42
0.43839485340413
 10
198.640247940872
 20
276.33312415369
  0
LWPOLYLINE
  5
4AE
330
1F
100
AcDbEntity
  8
Sichtbare_Kanten_TC_020513_DIN_
  6
Continuous
 62
     7
100
AcDbPolyline
 90
        2
 70
     0
 43
0.5
 10
198.640247940872
 20
276.33312415369
 42
0.33653733956714
 10
202.866208650507
 20
276.103485549645
  0
LWPOLYLINE
  5
4AF
330
1F
100
AcDbEntity
  8
Sichtbare_Kanten_TC_020513_DIN_
  6
Continuous
 62
     7
100
AcDbPolyline
 90
        2
 70
     0
 43
0.5
 10
206.305100769393
 20
275.481494822534
 42
0.40750055848266
 10
202.866208650507
 20
276.103485549645
  0
LWPOLYLINE
  5
4B0
330
1F
100
AcDbEntity
  8
Sichtbare_Kanten_TC_020513_DIN_
  6
Continuous
 62
     7
100
AcDbPolyline
 90
        2
 70
     0
 43
0.5
 10
206.305100769393
 20
275.481494822534
 42
0.62685560099197
 10
212.517722285583
 20
276.528877164095
  0
LWPOLYLINE
  5
4B1
330
1F
100
AcDbEntity
  8
Sichtbare_Kanten_TC_020513_DIN_
  6
Continuous
 62
     7
100
AcDbPolyline
 90
        2
 70
     0
 43
0.5
 10
196.383535880332
 20
298.32254412845
 42
0.93094933625128
 10
217.283391146016
 20
274.198457408378
  0
LWPOLYLINE
  5
4B2
330
1F
100
AcDbEntity
  8
Sichtbare_Kanten_TC_020513_DIN_
  6
Continuous
 62
     7
100
AcDbPolyline
 90
        2
 70
     0
 43
0.5
 10
204.014291577793
 20
297.583781191975
 42
3.78996837926584
 10
207.918563697937
 20
301.353228092577
  0
LWPOLYLINE
  5
4B3
330
1F
100
AcDbEntity
  8
Sichtbare_Kanten_TC_020513_DIN_
  6
Continuous
 62
     7
100
AcDbPolyline
 90
        2
 70
     0
 43
0.5
 10
202.880020620602
 20
269.229871922552
 42
0.17729112520569
 10
206.309441695747
 20
269.469261080464
  0
LWPOLYLINE
  5
4B4
330
1F
100
AcDbEntity
  8
Sichtbare_Kanten_TC_020513_DIN_
  6
Continuous
 62
     7
100
AcDbPolyline
 90
        2
 70
     0
 43
0.5
 10
166.791945492535
 20
267.017096532036
 42
0.41421356237309
 10
168.180175968561
 20
266.747251862952
  0
LWPOLYLINE
  5
4B5
330
1F
100
AcDbEntity
  8
Sichtbare_Kanten_TC_020513_DIN_
  6
Continuous
 62
     7
100
AcDbPolyline
 90
        2
 70
     0
 43
0.5
 10
252.484302448852
 20
269.159998513567
 42
1.0
 10
253.234302448852
 20
269.159998513567
  0
LWPOLYLINE
  5
4B6
330
1F
100
AcDbEntity
  8
Sichtbare_Kanten_TC_020513_DIN_
  6
Continuous
 62
     7
100
AcDbPolyline
 90
        2
 70
     0
 43
0.5
 10
253.163031308343
 20
274.527535468651
 42
0.72714551713833
 10
252.484302448852
 20
274.307595067832
  0
LWPOLYLINE
  5
4B7
330
1F
100
AcDbEntity
  8
Sichtbare_Kanten_TC_020513_DIN_
  6
Continuous
 62
     7
100
AcDbPolyline
 90
        2
 70
     0
 43
0.5
 10
256.234302448852
 20
274.307595067832
 42
0.72714551713766
 10
255.555573589362
 20
274.527535468651
  0
LWPOLYLINE
  5
4B8
330
1F
100
AcDbEntity
  8
Sichtbare_Kanten_TC_020513_DIN_
  6
Continuous
 62
     7
100
AcDbPolyline
 90
        2
 70
     0
 43
0.5
 10
255.484302448852
 20
267.385960052028
 42
1.0
 10
256.234302448852
 20
267.385960052028
  0
LWPOLYLINE
  5
4B9
330
1F
100
AcDbEntity
  8
Sichtbare_Kanten_TC_020513_DIN_
  6
Continuous
 62
     7
100
AcDbPolyline
 90
        2
 70
     0
 43
0.5
 10
251.659302448852
 20
273.398941221678
 42
1.0
 10
250.909302448852
 20
273.398941221678
  0
LWPOLYLINE
  5
4BA
330
1F
100
AcDbEntity
  8
Sichtbare_Kanten_TC_020513_DIN_
  6
Continuous
 62
     7
100
AcDbPolyline
 90
        2
 70
     0
 43
0.5
 10
254.171906528794
 20
266.195755841875
 42
0.99999999999813
 10
254.546698368911
 20
266.845395031412
  0
LWPOLYLINE
  5
4BB
330
1F
100
AcDbEntity
  8
Sichtbare_Kanten_TC_020513_DIN_
  6
Continuous
 62
     7
100
AcDbPolyline
 90
        2
 70
     0
 43
0.5
 10
250.909302448852
 20
268.294613898182
 42
0.26803505952234
 10
251.096906528794
 20
267.969794303414
  0
LWPOLYLINE
  5
4BC
330
1F
100
AcDbEntity
  8
Sichtbare_Kanten_TC_020513_DIN_
  6
Continuous
 62
     7
100
AcDbPolyline
 90
        2
 70
     0
 43
0.5
 10
249.409302448852
 20
269.159998513567
 42
1.0
 10
250.159302448852
 20
269.159998513567
  0
LWPOLYLINE
  5
4BD
330
1F
100
AcDbEntity
  8
Sichtbare_Kanten_TC_020513_DIN_
  6
Continuous
 62
     7
100
AcDbPolyline
 90
        2
 70
     0
 43
0.5
 10
250.159302448852
 20
272.533556606293
 42
1.0
 10
249.409302448852
 20
272.533556606293
  0
LWPOLYLINE
  5
4BE
330
1F
100
AcDbEntity
  8
Sichtbare_Kanten_TC_020513_DIN_
  6
Continuous
 62
     7
100
AcDbPolyline
 90
        2
 70
     0
 43
0.5
 10
257.546698368911
 20
273.767030047215
 42
0.57724345630816
 10
256.984302448852
 20
273.442210452447
  0
LWPOLYLINE
  5
4BF
330
1F
100
AcDbEntity
  8
Sichtbare_Kanten_TC_020513_DIN_
  6
Continuous
 62
     7
100
AcDbPolyline
 90
        2
 70
     0
 43
0.5
 10
259.421906528794
 20
271.819313934602
 42
0.99999999999888
 10
259.796698368911
 20
272.468953124138
  0
LWPOLYLINE
  5
4C0
330
1F
100
AcDbEntity
  8
Sichtbare_Kanten_TC_020513_DIN_
  6
Continuous
 62
     7
100
AcDbPolyline
 90
        2
 70
     0
 43
0.5
 10
259.609302448852
 20
270.47177755993
 42
1.0
 10
259.609302448852
 20
271.22177755993
  0
LWPOLYLINE
  5
4C1
330
1F
100
AcDbEntity
  8
Sichtbare_Kanten_TC_020513_DIN_
  6
Continuous
 62
     7
100
AcDbPolyline
 90
        2
 70
     0
 43
0.5
 10
259.796698368911
 20
269.224601995722
 42
0.99999999999884
 10
259.421906528794
 20
269.874241185258
  0
LWPOLYLINE
  5
4C2
330
1F
100
AcDbEntity
  8
Sichtbare_Kanten_TC_020513_DIN_
  6
Continuous
 62
     7
100
AcDbPolyline
 90
        2
 70
     0
 43
0.5
 10
256.984302448852
 20
268.251344667413
 42
0.57724345630816
 10
257.546698368911
 20
267.926525072645
  0
LWPOLYLINE
  5
4C3
330
1F
100
AcDbEntity
  8
Sichtbare_Kanten_TC_020513_DIN_
  6
Continuous
 62
     7
100
AcDbPolyline
 90
        3
 70
     0
 43
0.5
 10
430.391574198454
 20
232.34677755993
 42
1.0
 10
466.391574198462
 20
232.34677755993
 42
1.0
 10
430.391574198454
 20
232.34677755993
  0
LWPOLYLINE
  5
4C4
330
1F
100
AcDbEntity
  8
Sichtbare_Kanten_TC_020513_DIN_
  6
Continuous
 62
     7
100
AcDbPolyline
 90
        3
 70
     0
 43
0.5
 10
428.391574198457
 20
232.34677755993
 42
1.0
 10
468.391574198459
 20
232.34677755993
 42
1.0
 10
428.391574198457
 20
232.34677755993
  0
LWPOLYLINE
  5
4C5
330
1F
100
AcDbEntity
  8
Sichtbare_Kanten_TC_020513_DIN_
  6
Continuous
 62
     7
100
AcDbPolyline
 90
        3
 70
     0
 43
0.5
 10
288.109302448852
 20
278.34677755993
 42
0.99999999999976
 10
296.609302448852
 20
278.34677755993
 42
1.00000000000024
 10
288.109302448852
 20
278.34677755993
  0
LWPOLYLINE
  5
4C6
330
1F
100
AcDbEntity
  8
Sichtbare_Kanten_TC_020513_DIN_
  6
Continuous
 62
     7
100
AcDbPolyline
 90
        3
 70
     0
 43
0.5
 10
303.199302448853
 20
274.03677755993
 42
1.0
 10
305.699302448853
 20
274.03677755993
 42
1.0
 10
303.199302448853
 20
274.03677755993
  0
LWPOLYLINE
  5
4C7
330
1F
100
AcDbEntity
  8
Sichtbare_Kanten_TC_020513_DIN_
  6
Continuous
 62
     7
100
AcDbPolyline
 90
        3
 70
     0
 43
0.5
 10
298.179302448852
 20
296.02677755993
 42
1.0
 10
300.679302448852
 20
296.02677755993
 42
1.0
 10
298.179302448852
 20
296.02677755993
  0
LWPOLYLINE
  5
4C8
330
1F
100
AcDbEntity
  8
Sichtbare_Kanten_TC_020513_DIN_
  6
Continuous
 62
     7
100
AcDbPolyline
 90
        3
 70
     0
 43
0.5
 10
212.109302448852
 20
278.34677755993
 42
1.0
 10
220.609302448852
 20
278.34677755993
 42
1.0
 10
212.109302448852
 20
278.34677755993
  0
LWPOLYLINE
  5
4C9
330
1F
100
AcDbEntity
  8
Sichtbare_Kanten_TC_020513_DIN_
  6
Continuous
 62
     7
100
AcDbPolyline
 90
        3
 70
     0
 43
0.5
 10
203.019302448852
 20
274.03677755993
 42
1.0
 10
205.519302448852
 20
274.03677755993
 42
1.0
 10
203.019302448852
 20
274.03677755993
  0
LWPOLYLINE
  5
4CA
330
1F
100
AcDbEntity
  8
Sichtbare_Kanten_TC_020513_DIN_
  6
Continuous
 62
     7
100
AcDbPolyline
 90
        3
 70
     0
 43
0.5
 10
208.039302448852
 20
296.02677755993
 42
1.0
 10
210.539302448852
 20
296.02677755993
 42
1.0
 10
208.039302448852
 20
296.02677755993
  0
LWPOLYLINE
  5
4CB
330
1F
100
AcDbEntity
  8
Sichtbare_Kanten_TC_020513_DIN_
  6
Continuous
 62
     7
100
AcDbPolyline
 90
        5
 70
     0
 43
0.5
 10
464.858882004472
 20
272.30930912655
 10
464.68834119484
 20
272.299331309014
 10
464.54428153679
 20
272.271669985467
 10
464.429227883073
 20
272.22973096531
 10
464.339094931336
 20
272.174627663308
  0
LWPOLYLINE
  5
4CC
330
1F
100
AcDbEntity
  8
Sichtbare_Kanten_TC_020513_DIN_
  6
Continuous
 62
     7
100
AcDbPolyline
 90
        5
 70
     0
 43
0.5
 10
464.339094931336
 20
272.174627663308
 10
464.206487709733
 20
272.061868788415
 10
464.104129845353
 20
271.954545857125
 10
464.031295353623
 20
271.857762219125
 10
463.984747702332
 20
271.775021435433
  0
LWPOLYLINE
  5
4CD
330
1F
100
AcDbEntity
  8
Sichtbare_Kanten_TC_020513_DIN_
  6
Continuous
 62
     7
100
AcDbPolyline
 90
       10
 70
     0
 43
0.5
 10
462.201997811049
 20
267.984900356942
 10
462.109695250243
 20
267.813742043191
 10
461.999634081572
 20
267.652664663011
 10
461.734809452742
 20
267.36534226101
 10
461.419026428908
 20
267.124109150582
 10
461.062086397856
 20
266.927955629045
 10
460.669226223677
 20
266.774713875466
 10
460.250019604414
 20
266.664976360017
 10
459.809692675322
 20
266.598632814103
 10
459.360200936049
 20
266.576289416963
  0
LWPOLYLINE
  5
4CE
330
1F
100
AcDbEntity
  8
Sichtbare_Kanten_TC_020513_DIN_
  6
Continuous
 62
     7
100
AcDbPolyline
 90
        5
 70
     0
 43
0.5
 10
432.444053465577
 20
272.174627663308
 10
432.350275093766
 20
272.231602551156
 10
432.23373966858
 20
272.273906351739
 10
432.092414671632
 20
272.300242067987
 10
431.924266392442
 20
272.30930912655
  0
LWPOLYLINE
  5
4CF
330
1F
100
AcDbEntity
  8
Sichtbare_Kanten_TC_020513_DIN_
  6
Continuous
 62
     7
100
AcDbPolyline
 90
        5
 70
     0
 43
0.5
 10
432.79840069458
 20
271.775021435433
 10
432.751622969361
 20
271.85807335537
 10
432.679175907822
 20
271.954691292459
 10
432.576955134125
 20
272.061796070748
 10
432.444053465577
 20
272.174627663308
  0
LWPOLYLINE
  5
4D0
330
1F
100
AcDbEntity
  8
Sichtbare_Kanten_TC_020513_DIN_
  6
Continuous
 62
     7
100
AcDbPolyline
 90
       10
 70
     0
 43
0.5
 10
437.42294746086
 20
266.576289416963
 10
436.973624998778
 20
266.598581554109
 10
436.533828551024
 20
266.664805294686
 10
436.114484841078
 20
266.774546386415
 10
435.721705729216
 20
266.927634360009
 10
435.364498669356
 20
267.123924376183
 10
435.047978932112
 20
267.365726114923
 10
434.78329735443
 20
267.652819039041
 10
434.673403078764
 20
267.813760520631
 10
434.58115058586
 20
267.984900356942
  0
LWPOLYLINE
  5
4D1
330
1F
100
AcDbEntity
  8
Sichtbare_Kanten_TC_020513_DIN_
  6
Continuous
 62
     7
100
AcDbPolyline
 90
       25
 70
     0
 43
0.5
 10
466.848378950807
 20
272.072460533792
 10
466.848264509889
 20
272.069954754525
 10
466.847923571321
 20
272.067640902215
 10
466.847365671846
 20
272.065508248025
 10
466.846599156114
 20
272.063549639398
 10
466.845628792497
 20
272.061751963311
 10
466.844433123323
 20
272.060073496514
 10
466.842996651384
 20
272.058505894357
 10
466.841306263658
 20
272.057052733117
 10
466.83937626526
 20
272.055730702096
 10
466.837271029206
 20
272.054573179894
 10
466.835013205263
 20
272.053565861398
 10
466.832625443193
 20
272.052696825677
 10
466.830128008577
 20
272.05195295971
 10
466.827547127458
 20
272.051323534661
 10
466.824912602159
 20
272.050796629602
 10
466.822257811281
 20
272.050361515695
 10
466.819606596681
 20
272.050008656198
 10
466.816892201158
 20
272.049715401345
 10
466.814082438203
 20
272.049475790673
 10
466.811180884095
 20
272.049286247903
 10
466.808191115114
 20
272.049143196755
 10
466.805117899629
 20
272.049044253045
 10
466.801967198106
 20
272.048988224679
 10
466.798740202638
 20
272.048969151193
  0
LWPOLYLINE
  5
4D2
330
1F
100
AcDbEntity
  8
Sichtbare_Kanten_TC_020513_DIN_
  6
Continuous
 62
     7
100
AcDbPolyline
 90
       25
 70
     0
 43
0.5
 10
429.984408194276
 20
272.048969151193
 10
429.980793768617
 20
272.048991800958
 10
429.977230602952
 20
272.049065710717
 10
429.97373419449
 20
272.04919445675
 10
429.970315272065
 20
272.049386383706
 10
429.966988140794
 20
272.049646259957
 10
429.963765913698
 20
272.049980045968
 10
429.960660511705
 20
272.050396086389
 10
429.95768623993
 20
272.050897957498
 10
429.954856211396
 20
272.051492811852
 10
429.952184731218
 20
272.052185417825
 10
429.949681336137
 20
272.052982927972
 10
429.947349602434
 20
272.053892494851
 10
429.945195490571
 20
272.05492127102
 10
429.943227345201
 20
272.05607402485
 10
429.94146900818
 20
272.057344795876
 10
429.939921671602
 20
272.058732392007
 10
429.93858295128
 20
272.060238005334
 10
429.937456423494
 20
272.061853291207
 10
429.936556393358
 20
272.063536526376
 10
429.935862595292
 20
272.065268637353
 10
429.935355955812
 20
272.067040087396
 10
429.935017401429
 20
272.068838955575
 10
429.934827858659
 20
272.070650936776
 10
429.934769446107
 20
272.072460533792
  0
LWPOLYLINE
  5
4D3
330
1F
100
AcDbEntity
  8
Sichtbare_Kanten_TC_020513_DIN_
  6
Continuous
 62
     7
100
AcDbPolyline
 90
       25
 70
     0
 43
0.5
 10
428.830238157965
 20
228.180945994073
 10
428.802511269309
 20
228.527010561639
 10
428.779021078803
 20
228.873470904046
 10
428.759376579978
 20
229.220024229699
 10
428.743190342642
 20
229.566360594445
 10
428.730071360327
 20
229.912177206689
 10
428.719629818656
 20
230.257164122277
 10
428.711475903251
 20
230.601044775659
 10
428.705207878806
 20
230.948771120721
 10
428.7005944793
 20
231.301048876458
 10
428.69748192475
 20
231.653336168939
 10
428.695716435172
 20
232.001086355859
 10
428.695147806861
 20
232.34020340603
 10
428.69568663285
 20
232.682837130242
 10
428.697431856849
 20
233.032747389489
 10
428.700511032798
 20
233.385120512658
 10
428.705051714637
 20
233.73515236538
 10
428.71119576142
 20
234.079223753625
 10
428.719275767066
 20
234.423788668328
 10
428.729687506415
 20
234.77026331585
 10
428.742816025473
 20
235.118111254388
 10
428.759049946524
 20
235.466803194696
 10
428.778774315573
 20
235.815805079156
 10
428.802375370719
 20
236.164582850152
 10
428.830238157965
 20
236.512609602624
  0
LWPOLYLINE
  5
4D4
330
1F
100
AcDbEntity
  8
Sichtbare_Kanten_TC_020513_DIN_
  6
Continuous
 62
     7
100
AcDbPolyline
 90
       25
 70
     0
 43
0.5
 10
467.952910238959
 20
236.512609602624
 10
467.980637127616
 20
236.166545035058
 10
468.004127318122
 20
235.820082308465
 10
468.023771816947
 20
235.473531366998
 10
468.039958054282
 20
235.127192618066
 10
468.053077036597
 20
234.781378390008
 10
468.063518578269
 20
234.43639147442
 10
468.071672493674
 20
234.092510821038
 10
468.077940518119
 20
233.744784475976
 10
468.082553917624
 20
233.392506720239
 10
468.085666472175
 20
233.040219427758
 10
468.087431961753
 20
232.692466856652
 10
468.088000590064
 20
232.353352190667
 10
468.087461764075
 20
232.010718466455
 10
468.085716540076
 20
231.660808207208
 10
468.082637364127
 20
231.308435084039
 10
468.078096682288
 20
230.958403231317
 10
468.071952635505
 20
230.614331843072
 10
468.063872629859
 20
230.269764544183
 10
468.053460890509
 20
229.923292280847
 10
468.040332371451
 20
229.575444342309
 10
468.0240984504
 20
229.226752402001
 10
468.004374081351
 20
228.877750517541
 10
467.980773026206
 20
228.528970362359
 10
467.952910238959
 20
228.180945994073
  0
LWPOLYLINE
  5
4D5
330
1F
100
AcDbEntity
  8
Sichtbare_Kanten_TC_020513_DIN_
  6
Continuous
 62
     7
100
AcDbPolyline
 90
       25
 70
     0
 43
0.5
 10
331.336579250915
 20
272.069221617394
 10
331.374273228271
 20
272.099947811776
 10
331.413087772949
 20
272.128550888711
 10
331.453213619812
 20
272.15519178074
 10
331.494817661865
 20
272.180023075753
 10
331.537856983765
 20
272.203001858407
 10
331.582250523193
 20
272.22400415104
 10
331.627950596435
 20
272.242934586221
 10
331.67492382489
 20
272.259694220239
 10
331.723127293213
 20
272.274187685662
 10
331.77251808606
 20
272.286318422967
 10
331.823058056457
 20
272.295992256814
 10
331.874709057434
 20
272.303110243493
 10
331.927428173645
 20
272.307577015573
 10
331.981167721374
 20
272.309294821435
 10
332.035765575989
 20
272.308134915048
 10
332.091088223083
 20
272.30391609829
 10
332.147059368713
 20
272.296454788857
 10
332.20359318219
 20
272.285568596536
 10
332.260608601196
 20
272.271075131112
 10
332.318034100159
 20
272.252790810281
 10
332.375650333984
 20
272.230526091271
 10
332.433047222717
 20
272.20411884945
 10
332.489881443603
 20
272.173435570413
 10
332.545804905518
 20
272.138346316033
  0
LWPOLYLINE
  5
4D6
330
1F
100
AcDbEntity
  8
Sichtbare_Kanten_TC_020513_DIN_
  6
Continuous
 62
     7
100
AcDbPolyline
 90
       25
 70
     0
 43
0.5
 10
176.172799992187
 20
272.138346316033
 10
176.228685307129
 20
272.173411728555
 10
176.285467075928
 20
272.204072357827
 10
176.342792439087
 20
272.230456949883
 10
176.400308537109
 20
272.252699019128
 10
176.457633900268
 20
272.270969034844
 10
176.514582562073
 20
272.285464884454
 10
176.571068691833
 20
272.296366573983
 10
176.626996922119
 20
272.303852917367
 10
176.682281422241
 20
272.308103920632
 10
176.736826824768
 20
272.309298397714
 10
176.790528225525
 20
272.307610394174
 10
176.843256878479
 20
272.303162695581
 10
176.894960331543
 20
272.296051861459
 10
176.945595669372
 20
272.286376835519
 10
176.995100903137
 20
272.274234177285
 10
177.043437885864
 20
272.259720446282
 10
177.090544628723
 20
272.242932202035
 10
177.136373447998
 20
272.223968388253
 10
177.180881428345
 20
272.202924372369
 10
177.224006580933
 20
272.179897905999
 10
177.265634464844
 20
272.155043961221
 10
177.305674481018
 20
272.128454329187
 10
177.344384121521
 20
272.099921585732
 10
177.382020878418
 20
272.069225193673
  0
LWPOLYLINE
  5
4D7
330
1F
100
AcDbEntity
  8
Sichtbare_Kanten_TC_020513_DIN_
  6
Continuous
 62
     7
100
AcDbPolyline
 90
       25
 70
     0
 43
0.5
 10
193.859300541504
 20
247.346777798349
 10
193.874192165955
 20
246.883671166116
 10
193.91752235852
 20
246.410136105233
 10
193.987293171509
 20
245.92650163334
 10
194.081506657226
 20
245.433099152261
 10
194.198160099609
 20
244.930258871728
 10
194.335246014221
 20
244.418312193566
 10
194.490775990112
 20
243.897588135415
 10
194.663367199524
 20
243.368521811181
 10
194.851999210937
 20
242.831661583596
 10
195.055527615173
 20
242.287548662835
 10
195.272798466308
 20
241.736724259072
 10
195.502662586792
 20
241.179731966668
 10
195.743975567444
 20
240.617110611611
 10
195.995583462341
 20
240.04941094082
 10
196.25648014508
 20
239.477330328637
 10
196.525673794372
 20
238.901626946145
 10
196.802172588928
 20
238.323045851403
 10
197.084979939087
 20
237.7423273341
 10
197.373099255188
 20
237.16021883648
 10
197.665529179199
 20
236.577457071954
 10
197.961292194946
 20
235.994797827416
 10
198.259453701599
 20
235.413046957666
 10
198.559102940185
 20
234.833029390985
 10
198.859300541504
 20
234.255570055657
  0
LWPOLYLINE
  5
4D8
330
1F
100
AcDbEntity
  8
Sichtbare_Kanten_TC_020513_DIN_
  6
Continuous
 62
     7
100
AcDbPolyline
 90
       25
 70
     0
 43
0.5
 10
198.859300541504
 20
230.43798554104
 10
198.559102940185
 20
229.860526205712
 10
198.259453701599
 20
229.280508639031
 10
197.961292194946
 20
228.69875776928
 10
197.665529179199
 20
228.116096140557
 10
197.373099255188
 20
227.533336760217
 10
197.084979939087
 20
226.951228262597
 10
196.802172588928
 20
226.370509745294
 10
196.525673794372
 20
225.791927458459
 10
196.25648014508
 20
225.21622526806
 10
195.995583462341
 20
224.644144655877
 10
195.743975567444
 20
224.076443792993
 10
195.502662586792
 20
223.513823630029
 10
195.272798466308
 20
222.956830145532
 10
195.055527615173
 20
222.406006933862
 10
194.851999210937
 20
221.861892821008
 10
194.663367199524
 20
221.325033785516
 10
194.490775990112
 20
220.795966269189
 10
194.335246014221
 20
220.275243403131
 10
194.198160099609
 20
219.763296724969
 10
194.081506657226
 20
219.260455252343
 10
193.987293171509
 20
218.76705515545
 10
193.91752235852
 20
218.283418299371
 10
193.874192165955
 20
217.809885622674
 10
193.859300541504
 20
217.346776606256
  0
LWPOLYLINE
  5
4D9
330
1F
100
AcDbEntity
  8
Sichtbare_Kanten_TC_020513_DIN_
  6
Continuous
 62
     7
100
AcDbPolyline
 90
       25
 70
     0
 43
0.5
 10
309.859304356201
 20
234.255570055657
 10
310.159501957519
 20
234.833029390985
 10
310.459151196106
 20
235.413046957666
 10
310.757312702759
 20
235.994797827416
 10
311.053075718506
 20
236.577457071954
 10
311.345505642517
 20
237.16021883648
 10
311.633624958618
 20
237.7423273341
 10
311.916432308777
 20
238.323045851403
 10
312.192931103332
 20
238.901626946145
 10
312.462124752624
 20
239.477330328637
 10
312.723021435364
 20
240.04941094082
 10
312.974629330261
 20
240.617110611611
 10
313.215942310913
 20
241.179731966668
 10
313.445806431396
 20
241.736724259072
 10
313.663077282532
 20
242.287548662835
 10
313.866605686768
 20
242.831661583596
 10
314.055237698181
 20
243.368521811181
 10
314.227828907593
 20
243.897588135415
 10
314.383358883484
 20
244.418312193566
 10
314.520444798096
 20
244.930258871728
 10
314.637098240478
 20
245.433099152261
 10
314.731311726196
 20
245.92650163334
 10
314.801082539184
 20
246.410136105233
 10
314.84441273175
 20
246.883671166116
 10
314.859304356201
 20
247.346777798349
  0
LWPOLYLINE
  5
4DA
330
1F
100
AcDbEntity
  8
Sichtbare_Kanten_TC_020513_DIN_
  6
Continuous
 62
     7
100
AcDbPolyline
 90
       25
 70
     0
 43
0.5
 10
314.859304356201
 20
217.346776606256
 10
314.84441273175
 20
217.809885622674
 10
314.801082539184
 20
218.283418299371
 10
314.731311726196
 20
218.76705515545
 10
314.637098240478
 20
219.260455252343
 10
314.520444798096
 20
219.763296724969
 10
314.383358883484
 20
220.275243403131
 10
314.227828907593
 20
220.795966269189
 10
314.055237698181
 20
221.325033785516
 10
313.866605686768
 20
221.861892821008
 10
313.663077282532
 20
222.406006933862
 10
313.445806431396
 20
222.956830145532
 10
313.215942310913
 20
223.513823630029
 10
312.974629330261
 20
224.076443792993
 10
312.723021435364
 20
224.644144655877
 10
312.462124752624
 20
225.21622526806
 10
312.192931103332
 20
225.791927458459
 10
311.916432308777
 20
226.370509745294
 10
311.633624958618
 20
226.951228262597
 10
311.345505642517
 20
227.533336760217
 10
311.053075718506
 20
228.116096140557
 10
310.757312702759
 20
228.69875776928
 10
310.459151196106
 20
229.280508639031
 10
310.159501957519
 20
229.860526205712
 10
309.859304356201
 20
230.43798554104
  0
LEADER
  5
4DB
330
1F
100
AcDbEntity
  8
Symbole_TC_020513_DIN_
  6
Continuous
 62
     7
100
AcDbLeader
  3
Standard
 71
     0
 76
     3
 10
470.891574198461
 20
211.84677755993
 30
0.0
 10
485.218269921414
 20
242.67142266903
 30
0.0
 10
488.618269921414
 20
242.67142266903
 30
0.0
  0
TEXT
  5
4DD
330
1F
100
AcDbEntity
  8
Symbole_ISO_
 62
     7
100
AcDbText
 10
276.0
 20
38.4999999403953
 30
0.0
 40
8.00000011920929
  1
MAPS 24.32
 41
0.74999995529652
  7
CONVERTER_13
100
AcDbText
  0
TEXT
  5
4DF
330
1F
100
AcDbEntity
  8
Symbole_ISO_
 62
     7
100
AcDbText
 10
502.610914283349
 20
24.9999999999999
 30
0.0
 40
10.0
  1
1:2
 41
0.56249998509884
  7
CONVERTER_14
100
AcDbText
  0
TEXT
  5
4E1
330
1F
100
AcDbEntity
  8
Symbole_ISO_
 62
     7
100
AcDbText
 10
276.0
 20
23.4999999403953
 30
0.0
 40
8.00000011920929
  1
surface mounting h. 2 lev. M32 EMC
 41
0.625
  7
CONVERTER_15
100
AcDbText
  0
TOLERANCE
  5
4E3
330
1F
100
AcDbEntity
  8
Symbole_TC_020513_DIN_
 62
     7
100
AcDbFcf
  3
ME10_DIM_10
 10
490.218269921414
 20
239.1714227286353
 30
0.0
  1
{\Fgdt;n}^J5,5
1001
ACAD
1000
DSTYLE
1002
{
1070
   140
1040
6.99999988079071
1002
}
  0
DIMENSION
  5
4EE
330
1F
100
AcDbEntity
  8
Bemaßungen_TC_020513_DIN_
100
AcDbDimension
  2
*D3
 10
477.391574198469
 20
313.9967879955321
 30
0.0
 11
449.110769287145
 21
322.0831078457454
 31
0.0
 70
    32
  1
58
 71
     5
 42
-1.0
 53
0.00013888888889
  3
ME10_DIM_11
100
AcDbAlignedDimension
 13
419.391574198469
 23
278.34677755993
 33
0.0
 14
477.391574198469
 24
278.34677755993
 34
0.0
100
AcDbRotatedDimension
  0
DIMENSION
  5
4F9
330
1F
100
AcDbEntity
  8
Bemaßungen_TC_020513_DIN_
100
AcDbDimension
  2
*D4
 10
531.8915741984587
 20
207.84677755993
 30
0.0
 11
523.8052439126435
 21
248.580297341649
 31
0.0
 70
    32
  1
80
 71
     5
 42
-1.0
 53
90.0
  3
ME10_DIM_12
100
AcDbAlignedDimension
 13
464.391574198462
 23
287.84677755993
 33
0.0
 14
475.891574198459
 24
207.84677755993
 34
0.0
 50
90.0
100
AcDbRotatedDimension
  0
DIMENSION
  5
506
330
1F
100
AcDbEntity
  8
Bemaßungen_TC_020513_DIN_
100
AcDbDimension
  2
*D5
 10
495.8915741984582
 20
211.84677755993
 30
0.0
 11
488.0055045467167
 21
187.523683804114
 31
0.0
 70
    32
  1
4
 71
     5
 42
-1.0
 53
90.0
  3
ME10_DIM_13
100
AcDbAlignedDimension
 13
475.891574198459
 23
207.84677755993
 33
0.0
 14
475.891574198458
 24
211.84677755993
 34
0.0
 50
90.0
100
AcDbRotatedDimension
  0
DIMENSION
  5
511
330
1F
100
AcDbEntity
  8
Bemaßungen_TC_020513_DIN_
100
AcDbDimension
  2
*D6
 10
476.891574198459
 20
163.8467879955318
 30
0.0
 11
449.117931633657
 21
171.8696325890137
 31
0.0
 70
    32
  1
57
 71
     5
 42
-1.0
 53
0.00013888888889
  3
ME10_DIM_14
100
AcDbAlignedDimension
 13
419.891574198459
 23
207.84677755993
 33
0.0
 14
476.891574198459
 24
207.84677755993
 34
0.0
100
AcDbRotatedDimension
  0
DIMENSION
  5
51C
330
1F
100
AcDbEntity
  8
Bemaßungen_TC_020513_DIN_
100
AcDbDimension
  2
*D7
 10
470.891574198461
 20
182.8467879955319
 30
0.0
 11
448.950810214832
 21
190.8870455243371
 31
0.0
 70
    32
  1
45
 71
     5
 42
-1.0
 53
0.00013888888889
  3
ME10_DIM_15
100
AcDbAlignedDimension
 13
425.891574198461
 23
202.84677755993
 33
0.0
 14
470.891574198461
 24
202.84677755993
 34
0.0
100
AcDbRotatedDimension
  0
DIMENSION
  5
527
330
1F
100
AcDbEntity
  8
Bemaßungen_TC_020513_DIN_
100
AcDbDimension
  2
*D8
 10
352.542315150745
 20
212.34677755993
 30
0.0
 11
345.1176764072185
 21
232.042043589943
 31
0.0
 70
    32
  1
M32
 71
     5
 42
-1.0
 53
90.0
  3
ME10_DIM_16
100
AcDbAlignedDimension
 13
320.542315150745
 23
252.34677755993
 33
0.0
 14
320.542315150745
 24
212.34677755993
 34
0.0
 50
90.0
100
AcDbRotatedDimension
  0
DIMENSION
  5
532
330
1F
100
AcDbEntity
  8
Bemaßungen_TC_020513_DIN_
100
AcDbDimension
  2
*D9
 10
326.359302448852
 20
163.8467932133386
 30
0.0
 11
255.58014828787
 21
171.7789095330787
 31
0.0
 70
    32
  1
144
 71
     5
 42
-1.0
 53
0.00013888888889
  3
ME10_DIM_17
100
AcDbAlignedDimension
 13
182.359302448852
 23
207.84677755993
 33
0.0
 14
326.359302448852
 24
207.84677755993
 34
0.0
100
AcDbRotatedDimension
  0
DIMENSION
  5
53D
330
1F
100
AcDbEntity
  8
Bemaßungen_TC_020513_DIN_
100
AcDbDimension
  2
*D10
 10
319.359302448852
 20
182.8467932133383
 30
0.0
 11
255.57776083903
 21
190.2761912011364
 31
0.0
 70
    32
  1
132
 71
     5
 42
-1.0
 53
0.00013888888889
  3
ME10_DIM_18
100
AcDbAlignedDimension
 13
189.359302448852
 23
202.84677755993
 33
0.0
 14
319.359302448852
 24
202.84677755993
 34
0.0
100
AcDbRotatedDimension
  0
DIMENSION
  5
548
330
1F
100
AcDbEntity
  8
Bemaßungen_TC_020513_DIN_
100
AcDbDimension
  2
*D11
 10
344.36155668661
 20
322.3467932133393
 30
0.0
 11
255.57776083903
 21
330.4331078457454
 31
0.0
 70
    32
  1
180
 71
     5
 42
-1.0
 53
0.00013888888889
  3
ME10_DIM_19
100
AcDbAlignedDimension
 13
164.357048211095
 23
278.34677755993
 33
0.0
 14
344.36155668661
 24
278.34677755993
 34
0.0
100
AcDbRotatedDimension
  0
HATCH
  5
549
330
1F
100
AcDbEntity
  8
Symbole_TC_020513_DIN_
  6
Continuous
 62
     7
100
AcDbHatch
 10
0.0
 20
0.0
 30
0.0
210
0.0
220
0.0
230
1.0
  2
SOLID
 70
     1
 71
     1
 91
        1
 92
        1
 93
        3
 72
     1
 10
473.595913483824
 20
216.103520273868
 11
472.402039272773
 21
216.658409794662
 72
     1
 10
472.402039272773
 20
216.658409794662
 11
470.891574198461
 21
211.84677755993
 72
     1
 10
470.891574198461
 20
211.84677755993
 11
473.595913483824
 21
216.103520273868
 97
        3
330
334
330
335
330
336
 75
     0
 76
     1
 98
        1
 10
0.0
 20
0.0
  0
ENDSEC
  0
SECTION
  2
OBJECTS
  0
DICTIONARY
  5
C
330
0
100
AcDbDictionary
281
     1
  3
ACAD_GROUP
350
D
  3
ACAD_LAYOUT
350
1A
  3
ACAD_MLEADERSTYLE
350
54B
  3
ACAD_MLINESTYLE
350
17
  3
ACAD_PLOTSETTINGS
350
19
  3
ACAD_PLOTSTYLENAME
350
E
  3
ACAD_TABLESTYLE
350
54A
  3
ACAD_VISUALSTYLE
350
2A
  0
DICTIONARY
  5
D
102
{ACAD_REACTORS
330
C
102
}
330
C
100
AcDbDictionary
281
     1
  0
DICTIONARY
  5
1A
102
{ACAD_REACTORS
330
C
102
}
330
C
100
AcDbDictionary
281
     1
  3
Layout1
350
1E
  3
Layout2
350
26
  3
Model
350
22
  0
DICTIONARY
  5
54B
102
{ACAD_REACTORS
330
C
102
}
330
C
100
AcDbDictionary
281
     1
  0
DICTIONARY
  5
17
102
{ACAD_REACTORS
330
C
102
}
330
C
100
AcDbDictionary
281
     1
  3
Standard
350
18
  0
DICTIONARY
  5
19
102
{ACAD_REACTORS
330
C
102
}
330
C
100
AcDbDictionary
281
     1
  0
ACDBDICTIONARYWDFLT
  5
E
102
{ACAD_REACTORS
330
C
102
}
330
C
100
AcDbDictionary
281
     1
  3
Normal
350
F
100
AcDbDictionaryWithDefault
340
F
  0
DICTIONARY
  5
54A
102
{ACAD_REACTORS
330
C
102
}
330
C
100
AcDbDictionary
281
     1
  0
DICTIONARY
  5
2A
102
{ACAD_REACTORS
330
C
102
}
330
C
100
AcDbDictionary
281
     1
  3
2dWireframe
350
2F
  3
3D Hidden
350
31
  3
3dWireframe
350
30
  3
Basic
350
32
  3
Brighten
350
36
  3
ColorChange
350
3A
  3
Conceptual
350
34
  3
Dim
350
35
  3
Facepattern
350
39
  3
Flat
350
2B
  3
FlatWithEdges
350
2C
  3
Gouraud
350
2D
  3
GouraudWithEdges
350
2E
  3
Linepattern
350
38
  3
Realistic
350
33
  3
Thicken
350
37
  0
LAYOUT
  5
1E
102
{ACAD_REACTORS
330
1A
102
}
330
1A
100
AcDbPlotSettings
  1

  2
none_device
  4

  6

 40
0.0
 41
0.0
 42
0.0
 43
0.0
 44
0.0
 45
0.0
 46
0.0
 47
0.0
 48
0.0
 49
0.0
140
0.0
141
0.0
142
1.0
143
1.0
 70
   688
 72
     0
 73
     0
 74
     5
  7

 75
    16
147
1.0
148
0.0
149
0.0
100
AcDbLayout
  1
Layout1
 70
     1
 71
     1
 10
0.0
 20
0.0
 11
12.0
 21
9.0
 12
0.0
 22
0.0
 32
0.0
 14
1.00000000000000E+20
 24
1.00000000000000E+20
 34
1.00000000000000E+20
 15
-1.00000000000000E+20
 25
-1.00000000000000E+20
 35
-1.00000000000000E+20
146
0.0
 13
0.0
 23
0.0
 33
0.0
 16
1.0
 26
0.0
 36
0.0
 17
0.0
 27
1.0
 37
0.0
 76
     0
330
1B
  0
LAYOUT
  5
26
102
{ACAD_REACTORS
330
1A
102
}
330
1A
100
AcDbPlotSettings
  1

  2
none_device
  4

  6

 40
0.0
 41
0.0
 42
0.0
 43
0.0
 44
0.0
 45
0.0
 46
0.0
 47
0.0
 48
0.0
 49
0.0
140
0.0
141
0.0
142
1.0
143
1.0
 70
   688
 72
     0
 73
     0
 74
     5
  7

 75
    16
147
1.0
148
0.0
149
0.0
100
AcDbLayout
  1
Layout2
 70
     1
 71
     2
 10
0.0
 20
0.0
 11
0.0
 21
0.0
 12
0.0
 22
0.0
 32
0.0
 14
0.0
 24
0.0
 34
0.0
 15
0.0
 25
0.0
 35
0.0
146
0.0
 13
0.0
 23
0.0
 33
0.0
 16
1.0
 26
0.0
 36
0.0
 17
0.0
 27
1.0
 37
0.0
 76
     0
330
23
  0
LAYOUT
  5
22
102
{ACAD_REACTORS
330
1A
102
}
330
1A
100
AcDbPlotSettings
  1

  2
none_device
  4

  6

 40
0.0
 41
0.0
 42
0.0
 43
0.0
 44
0.0
 45
0.0
 46
0.0
 47
0.0
 48
0.0
 49
0.0
140
0.0
141
0.0
142
1.0
143
1.0
 70
  1712
 72
     0
 73
     0
 74
     0
  7

 75
     0
147
1.0
148
0.0
149
0.0
100
AcDbLayout
  1
Model
 70
     1
 71
     0
 10
0.0
 20
0.0
 11
12.0
 21
9.0
 12
0.0
 22
0.0
 32
0.0
 14
19.49999999999996
 24
19.4999999999999
 34
0.0
 15
574.5
 25
420.5
 35
0.0
146
0.0
 13
0.0
 23
0.0
 33
0.0
 16
1.0
 26
0.0
 36
0.0
 17
0.0
 27
1.0
 37
0.0
 76
     0
330
1F
331
29
  0
MLINESTYLE
  5
18
102
{ACAD_REACTORS
330
17
102
}
330
17
100
AcDbMlineStyle
  2
Standard
 70
     0
  3

 62
   256
 51
90.0
 52
90.0
 71
     2
 49
0.5
 62
   256
  6
BYLAYER
 49
-0.5
 62
   256
  6
BYLAYER
  0
ACDBPLACEHOLDER
  5
F
102
{ACAD_REACTORS
330
E
102
}
330
E
  0
VISUALSTYLE
  5
2F
102
{ACAD_REACTORS
330
2A
102
}
330
2A
100
AcDbVisualStyle
  2
2dWireframe
 70
     4
 71
     0
 72
     2
 73
     0
 90
        0
 40
-0.6
 41
-30.0
 62
     5
 63
     7
 74
     1
 91
        4
 64
     7
 65
   257
 75
     1
175
     1
 42
1.0
 92
        0
 66
   257
 43
1.0
 76
     1
 77
     6
 78
     2
 67
     7
 79
     5
170
     0
171
     0
290
     0
174
     0
 93
        1
 44
0.0
173
     0
291
     0
 45
0.0
1001
ACAD
1000
AcDbSavedByObjectVersion
1070
     0
  0
VISUALSTYLE
  5
31
102
{ACAD_REACTORS
330
2A
102
}
330
2A
100
AcDbVisualStyle
  2
3D Hidden
 70
     6
 71
     1
 72
     2
 73
     2
 90
        0
 40
-0.6
 41
-30.0
 62
     5
 63
     7
 74
     2
 91
        2
 64
     7
 65
   257
 75
     2
175
     1
 42
40.0
 92
        0
 66
   257
 43
1.0
 76
     1
 77
     6
 78
     2
 67
     7
 79
     3
170
     0
171
     0
290
     0
174
     0
 93
        1
 44
0.0
173
     0
291
     0
 45
0.0
1001
ACAD
1000
AcDbSavedByObjectVersion
1070
     0
  0
VISUALSTYLE
  5
30
102
{ACAD_REACTORS
330
2A
102
}
330
2A
100
AcDbVisualStyle
  2
3dWireframe
 70
     5
 71
     0
 72
     2
 73
     0
 90
        0
 40
-0.6
 41
-30.0
 62
     5
 63
     7
 74
     1
 91
        4
 64
     7
 65
   257
 75
     1
175
     1
 42
1.0
 92
        0
 66
   257
 43
1.0
 76
     1
 77
     6
 78
     2
 67
     7
 79
     5
170
     0
171
     0
290
     0
174
     0
 93
        1
 44
0.0
173
     0
291
     0
 45
0.0
1001
ACAD
1000
AcDbSavedByObjectVersion
1070
     0
  0
VISUALSTYLE
  5
32
102
{ACAD_REACTORS
330
2A
102
}
330
2A
100
AcDbVisualStyle
  2
Basic
 70
     7
 71
     1
 72
     0
 73
     1
 90
        0
 40
-0.6
 41
-30.0
 62
     5
 63
     7
 74
     0
 91
        4
 64
     7
 65
   257
 75
     1
175
     1
 42
1.0
 92
        8
 66
     7
 43
1.0
 76
     1
 77
     6
 78
     2
 67
     7
 79
     5
170
     0
171
     0
290
     0
174
     0
 93
        1
 44
0.0
173
     0
291
     1
 45
0.0
1001
ACAD
1000
AcDbSavedByObjectVersion
1070
     0
  0
VISUALSTYLE
  5
36
102
{ACAD_REACTORS
330
2A
102
}
330
2A
100
AcDbVisualStyle
  2
Brighten
 70
    12
 71
     2
 72
     2
 73
     0
 90
        0
 40
-0.6
 41
-30.0
 62
     5
 63
     7
 74
     1
 91
        4
 64
     7
 65
   257
 75
     1
175
     1
 42
1.0
 92
        8
 66
     7
 43
1.0
 76
     1
 77
     6
 78
     2
 67
     7
 79
     5
170
     0
171
     0
290
     0
174
     0
 93
        1
 44
50.0
173
     0
291
     1
 45
0.0
1001
ACAD
1000
AcDbSavedByObjectVersion
1070
     0
  0
VISUALSTYLE
  5
3A
102
{ACAD_REACTORS
330
2A
102
}
330
2A
100
AcDbVisualStyle
  2
ColorChange
 70
    16
 71
     2
 72
     2
 73
     3
 90
        0
 40
-0.6
 41
-30.0
 62
     5
 63
     8
 74
     1
 91
        4
 64
     7
 65
   257
 75
     1
175
     1
 42
1.0
 92
        8
 66
     8
 43
1.0
 76
     1
 77
     6
 78
     2
 67
     7
 79
     5
170
     0
171
     0
290
     0
174
     0
 93
        1
 44
0.0
173
     0
291
     1
 45
0.0
1001
ACAD
1000
AcDbSavedByObjectVersion
1070
     0
  0
VISUALSTYLE
  5
34
102
{ACAD_REACTORS
330
2A
102
}
330
2A
100
AcDbVisualStyle
  2
Conceptual
 70
     9
 71
     3
 72
     2
 73
     0
 90
        0
 40
-0.6
 41
-30.0
 62
     5
 63
     7
 74
     2
 91
        2
 64
     7
 65
   257
 75
     1
175
     1
 42
40.0
 92
        8
 66
     7
 43
1.0
 76
     1
 77
     6
 78
     2
 67
     7
 79
     3
170
     0
171
     0
290
     0
174
     0
 93
        1
 44
0.0
173
     0
291
     0
 45
0.0
1001
ACAD
1000
AcDbSavedByObjectVersion
1070
     0
  0
VISUALSTYLE
  5
35
102
{ACAD_REACTORS
330
2A
102
}
330
2A
100
AcDbVisualStyle
  2
Dim
 70
    11
 71
     2
 72
     2
 73
     0
 90
        0
 40
-0.6
 41
-30.0
 62
     5
 63
     7
 74
     1
 91
        4
 64
     7
 65
   257
 75
     1
175
     1
 42
1.0
 92
        8
 66
     7
 43
1.0
 76
     1
 77
     6
 78
     2
 67
     7
 79
     5
170
     0
171
     0
290
     0
174
     0
 93
        1
 44
-50.0
173
     0
291
     1
 45
0.0
1001
ACAD
1000
AcDbSavedByObjectVersion
1070
     0
  0
VISUALSTYLE
  5
39
102
{ACAD_REACTORS
330
2A
102
}
330
2A
100
AcDbVisualStyle
  2
Facepattern
 70
    15
 71
     2
 72
     2
 73
     0
 90
        0
 40
-0.6
 41
-30.0
 62
     5
 63
     7
 74
     1
 91
        4
 64
     7
 65
   257
 75
     1
175
     1
 42
1.0
 92
        8
 66
     7
 43
1.0
 76
     1
 77
     6
 78
     2
 67
     7
 79
     5
170
     0
171
     0
290
     0
174
     0
 93
        1
 44
0.0
173
     0
291
     1
 45
0.0
1001
ACAD
1000
AcDbSavedByObjectVersion
1070
     0
  0
VISUALSTYLE
  5
2B
102
{ACAD_REACTORS
330
2A
102
}
330
2A
100
AcDbVisualStyle
  2
Flat
 70
     0
 71
     2
 72
     1
 73
     1
 90
        2
 40
-0.6
 41
30.0
 62
     5
 63
     7
 74
     0
 91
        4
 64
     7
 65
   257
 75
     1
175
     1
 42
1.0
 92
        8
 66
     7
 43
1.0
 76
     1
 77
     6
 78
     2
 67
     7
 79
     5
170
     0
171
     0
290
     0
174
     0
 93
       13
 44
0.0
173
     0
291
     1
 45
0.0
1001
ACAD
1000
AcDbSavedByObjectVersion
1070
     0
  0
VISUALSTYLE
  5
2C
102
{ACAD_REACTORS
330
2A
102
}
330
2A
100
AcDbVisualStyle
  2
FlatWithEdges
 70
     1
 71
     2
 72
     1
 73
     1
 90
        2
 40
-0.6
 41
30.0
 62
     5
 63
     7
 74
     1
 91
        4
 64
     7
 65
   257
 75
     1
175
     1
 42
1.0
 92
        0
 66
   257
 43
1.0
 76
     1
 77
     6
 78
     2
 67
     7
 79
     5
170
     0
171
     0
290
     0
174
     0
 93
       13
 44
0.0
173
     0
291
     1
 45
0.0
1001
ACAD
1000
AcDbSavedByObjectVersion
1070
     0
  0
VISUALSTYLE
  5
2D
102
{ACAD_REACTORS
330
2A
102
}
330
2A
100
AcDbVisualStyle
  2
Gouraud
 70
     2
 71
     2
 72
     2
 73
     1
 90
        2
 40
-0.6
 41
30.0
 62
     5
 63
     7
 74
     0
 91
        4
 64
     7
 65
   257
 75
     1
175
     1
 42
1.0
 92
        0
 66
     7
 43
1.0
 76
     1
 77
     6
 78
     2
 67
     7
 79
     5
170
     0
171
     0
290
     0
174
     0
 93
       13
 44
0.0
173
     0
291
     1
 45
0.0
1001
ACAD
1000
AcDbSavedByObjectVersion
1070
     0
  0
VISUALSTYLE
  5
2E
102
{ACAD_REACTORS
330
2A
102
}
330
2A
100
AcDbVisualStyle
  2
GouraudWithEdges
 70
     3
 71
     2
 72
     2
 73
     1
 90
        2
 40
-0.6
 41
30.0
 62
     5
 63
     7
 74
     1
 91
        4
 64
     7
 65
   257
 75
     1
175
     1
 42
1.0
 92
        0
 66
   257
 43
1.0
 76
     1
 77
     6
 78
     2
 67
     7
 79
     5
170
     0
171
     0
290
     0
174
     0
 93
       13
 44
0.0
173
     0
291
     1
 45
0.0
1001
ACAD
1000
AcDbSavedByObjectVersion
1070
     0
  0
VISUALSTYLE
  5
38
102
{ACAD_REACTORS
330
2A
102
}
330
2A
100
AcDbVisualStyle
  2
Linepattern
 70
    14
 71
     2
 72
     2
 73
     0
 90
        0
 40
-0.6
 41
-30.0
 62
     5
 63
     7
 74
     1
 91
        4
 64
     7
 65
   257
 75
     7
175
     7
 42
1.0
 92
        8
 66
     7
 43
1.0
 76
     1
 77
     6
 78
     2
 67
     7
 79
     5
170
     0
171
     0
290
     0
174
     0
 93
        1
 44
0.0
173
     0
291
     1
 45
0.0
1001
ACAD
1000
AcDbSavedByObjectVersion
1070
     0
  0
VISUALSTYLE
  5
33
102
{ACAD_REACTORS
330
2A
102
}
330
2A
100
AcDbVisualStyle
  2
Realistic
 70
     8
 71
     2
 72
     2
 73
     0
 90
        0
 40
-0.6
 41
-30.0
 62
     5
 63
     7
 74
     1
 91
        0
 64
     7
 65
   257
 75
     1
175
     1
 42
1.0
 92
        8
 66
     8
 43
1.0
 76
     1
 77
     6
 78
     2
 67
     7
 79
     5
170
     0
171
     0
290
     0
174
     0
 93
       13
 44
0.0
173
     0
291
     0
 45
0.0
1001
ACAD
1000
AcDbSavedByObjectVersion
1070
     0
  0
VISUALSTYLE
  5
37
102
{ACAD_REACTORS
330
2A
102
}
330
2A
100
AcDbVisualStyle
  2
Thicken
 70
    13
 71
     2
 72
     2
 73
     0
 90
        0
 40
-0.6
 41
-30.0
 62
     5
 63
     7
 74
     1
 91
        4
 64
     7
 65
   257
 75
     1
175
     1
 42
1.0
 92
       12
 66
     7
 43
1.0
 76
     1
 77
     6
 78
     2
 67
     7
 79
     5
170
     0
171
     0
290
     0
174
     0
 93
        1
 44
0.0
173
     0
291
     1
 45
0.0
1001
ACAD
1000
AcDbSavedByObjectVersion
1070
     0
  0
ENDSEC
  0
EOF
